<?xml version="1.0" standalone="no"?>
<!DOCTYPE svg PUBLIC "-//W3C//DTD SVG 1.1//EN" "http://www.w3.org/Graphics/SVG/1.1/DTD/svg11.dtd" >
<svg xmlns="http://www.w3.org/2000/svg" xmlns:xlink="http://www.w3.org/1999/xlink" version="1.1">
<metadata></metadata>
<defs>
<font id="gilroybold" horiz-adv-x="1282" >
<font-face units-per-em="2048" ascent="1638" descent="-410" />
<missing-glyph horiz-adv-x="512" />
<glyph unicode="&#xfb01;" horiz-adv-x="1140" d="M43 770v254h147v10q0 428 482 428q108 0 239 -28v-242q-138 16 -239 16q-110 0 -163.5 -37.5t-53.5 -136.5v-10h565v-1024h-264v770h-301v-770h-265v770h-147z" />
<glyph unicode="&#xfb02;" horiz-adv-x="1140" d="M43 770v254h147v10q0 428 482 428q137 0 348 -43v-1419h-264v1229q-29 2 -84 2q-217 0 -217 -197v-10h170v-254h-170v-770h-265v770h-147z" />
<glyph horiz-adv-x="0" />
<glyph horiz-adv-x="682" />
<glyph unicode=" "  horiz-adv-x="512" />
<glyph unicode="&#x09;" horiz-adv-x="512" />
<glyph unicode="&#xa0;" horiz-adv-x="512" />
<glyph unicode="!" horiz-adv-x="548" d="M100 147q0 72 51 123.5t123 51.5t123.5 -51.5t51.5 -123.5t-51.5 -123t-123.5 -51t-123 51t-51 123zM115 1024v410h317v-410l-53 -543h-209z" />
<glyph unicode="&#x22;" horiz-adv-x="774" d="M88 1434h250l-35 -471h-180zM436 1434h250l-35 -471h-180z" />
<glyph unicode="#" horiz-adv-x="1261" d="M47 426l33 199h225l31 184h-227l32 201h228l53 321h207l-54 -321h209l54 321h209l-54 -321h221l-32 -201h-221l-31 -184h223l-33 -199h-225l-53 -324h-209l53 324h-209l-53 -324h-207l53 324h-223zM512 625h209l31 184h-209z" />
<glyph unicode="$" horiz-adv-x="1124" d="M51 297l244 141q66 -163 227 -186v354q-1 0 -3 1t-3 1q-50 19 -83 33.5t-79 38.5t-76.5 46.5t-64 56.5t-53 71t-32.5 86.5t-13 106.5q0 92 33 168t90 126.5t129.5 80.5t154.5 38v178h137v-182q131 -15 234 -88.5t160 -200.5l-238 -139q-50 123 -156 150v-342 q149 -59 199 -87q158 -86 199 -227q16 -56 16 -121q0 -180 -114.5 -291.5t-299.5 -134.5v-180h-137v178q-171 12 -294 96.5t-177 227.5zM395 1044q0 -45 28.5 -78.5t98.5 -68.5v287q-61 -12 -94 -49.5t-33 -90.5zM659 256q66 14 99 53.5t33 89.5q0 51 -32.5 86t-99.5 66 v-295z" />
<glyph unicode="%" horiz-adv-x="1566" d="M92 1124q0 141 99 239.5t247 98.5q147 0 245.5 -97.5t98.5 -240.5q0 -142 -98 -240t-246 -98t-247 98t-99 240zM238 217l933 1038l125 -69l-936 -1041zM309 1124q0 -56 36 -93.5t91 -37.5q56 0 92.5 38t36.5 93t-36.5 92t-92.5 37q-55 0 -91 -37t-36 -92zM786 313 q0 141 98 239.5t246 98.5t246.5 -98.5t98.5 -239.5t-98.5 -239.5t-246.5 -98.5t-246 98.5t-98 239.5zM1004 313q0 -56 35 -93.5t91 -37.5t91.5 38.5t35.5 92.5q0 56 -35.5 93.5t-91.5 37.5t-91 -37.5t-35 -93.5z" />
<glyph unicode="&#x26;" horiz-adv-x="1378" d="M92 397q0 127 62 235.5t178 176.5q-70 113 -70 240q0 182 127 297.5t322 115.5q154 0 275 -79t181 -228l-241 -139q-28 81 -82 126.5t-129 45.5q-74 0 -122 -43t-48 -109q0 -58 28 -104.5t89 -112.5l307 -336q44 96 69 238l238 -135q-41 -167 -125 -301l184 -203 l-225 -129l-131 141q-165 -123 -385 -123q-222 0 -362 115.5t-140 310.5zM377 426q0 -89 60 -142t175 -53q107 0 191 52l-309 335q-5 5 -5 7q-112 -70 -112 -199z" />
<glyph unicode="'" horiz-adv-x="425" d="M88 1434h250l-35 -471h-180z" />
<glyph unicode="(" horiz-adv-x="628" d="M109 717q0 469 225 921h264q-225 -452 -225 -921q0 -470 225 -922h-264q-225 452 -225 922z" />
<glyph unicode=")" horiz-adv-x="628" d="M31 -205q225 452 225 922q0 469 -225 921h264q225 -452 225 -921q0 -470 -225 -922h-264z" />
<glyph unicode="*" horiz-adv-x="815" d="M109 1083v164l184 -16l-111 145l137 86l89 -172l88 172l139 -86l-113 -145l187 16v-164l-187 15l113 -144l-139 -86l-88 172l-89 -172l-137 86l111 144z" />
<glyph unicode="+" horiz-adv-x="1136" d="M109 594v248h335v336h248v-336h338v-248h-338v-338h-248v338h-335z" />
<glyph unicode="," horiz-adv-x="569" d="M100 -287l82 570h287l-154 -570h-215z" />
<glyph unicode="-" horiz-adv-x="1034" d="M133 492v253h768v-253h-768z" />
<glyph unicode="." horiz-adv-x="548" d="M100 147q0 72 51 123.5t123 51.5t123.5 -51.5t51.5 -123.5t-51.5 -123t-123.5 -51t-123 51t-51 123z" />
<glyph unicode="/" horiz-adv-x="1071" d="M68 -205l819 1843h117l-820 -1843h-116z" />
<glyph unicode="0" horiz-adv-x="1290" d="M72 717q0 337 152 541t421 204q180 0 311 -94.5t197 -261.5t66 -389q0 -338 -152 -542t-422 -204q-179 0 -309.5 94.5t-197 262t-66.5 389.5zM354 717q0 -229 73.5 -349t217.5 -120t218.5 120.5t74.5 348.5q0 229 -74.5 350t-218.5 121t-217.5 -121t-73.5 -350z" />
<glyph unicode="1" horiz-adv-x="792" d="M23 1300l376 134h246v-1434h-283v1135l-270 -76z" />
<glyph unicode="2" horiz-adv-x="1087" d="M45 1159q67 149 194 226t279 77q125 0 231.5 -51.5t174 -156t67.5 -242.5q0 -224 -235 -459l-281 -281h539v-272h-959v211l490 504q79 82 121.5 150.5t42.5 135.5q0 85 -52 136t-135 51q-81 0 -142 -44.5t-97 -123.5z" />
<glyph unicode="3" horiz-adv-x="1116" d="M47 274l242 140q55 -166 250 -166q109 0 169 52.5t60 141.5q0 88 -60.5 141.5t-168.5 53.5h-62l-108 164l282 368h-561v265h901v-234l-268 -348q146 -43 237 -150.5t91 -259.5q0 -148 -72.5 -257t-187 -161.5t-252.5 -52.5q-110 0 -205 32.5t-171 101.5t-116 169z" />
<glyph unicode="4" horiz-adv-x="1187" d="M43 244v262l477 928h303l-475 -928h373v340h285v-340h153v-262h-153v-244h-285v244h-678z" />
<glyph unicode="5" horiz-adv-x="1122" d="M51 279l242 141q54 -172 258 -172q109 0 169 52.5t60 141.5q0 88 -59 141.5t-162 53.5h-434l57 797h813v-265h-551l-18 -258h147q99 0 187 -30.5t156 -88t107.5 -148t39.5 -202.5q0 -148 -72.5 -257t-187 -161.5t-252.5 -52.5q-174 0 -307 78t-193 230z" />
<glyph unicode="6" horiz-adv-x="1132" d="M47 471q0 162 84 289l447 674h323l-317 -465q223 -6 362 -144.5t139 -353.5q0 -220 -145 -360t-375 -140t-374 140t-144 360zM328 471q0 -106 67.5 -169.5t169.5 -63.5q103 0 171.5 63.5t68.5 169.5q0 105 -68.5 168t-171.5 63t-170 -62.5t-67 -168.5z" />
<glyph unicode="7" horiz-adv-x="1003" d="M27 1163v271h925v-240l-485 -1194h-299l471 1163h-612z" />
<glyph unicode="8" horiz-adv-x="1163" d="M68 399q0 109 51 199t145 147q-149 109 -149 297q0 101 37.5 182t102 132t148 78.5t179.5 27.5t179.5 -27.5t147.5 -78.5t101 -132t37 -182q0 -189 -150 -297q95 -57 147 -147t52 -199q0 -198 -138 -313t-376 -115q-239 0 -376.5 115t-137.5 313zM348 436q0 -94 65 -146 t169 -52t168.5 52t64.5 146q0 93 -64.5 145t-168.5 52t-169 -52t-65 -145zM397 1028q0 -77 52 -123.5t133 -46.5t132.5 46.5t51.5 123.5q0 78 -51.5 123t-132.5 45t-133 -45t-52 -123z" />
<glyph unicode="9" horiz-adv-x="1132" d="M47 965q0 220 144.5 358.5t373.5 138.5q231 0 375.5 -138.5t144.5 -358.5q0 -166 -86 -291h2l-446 -674h-324l320 467q-223 5 -363.5 143.5t-140.5 354.5zM328 965q0 -106 68 -170t169 -64q104 0 172 64t68 170t-68 168.5t-172 62.5q-101 0 -169 -63t-68 -168z" />
<glyph unicode=":" horiz-adv-x="548" d="M100 147q0 72 51 123.5t123 51.5t123.5 -51.5t51.5 -123.5t-51.5 -123t-123.5 -51t-123 51t-51 123zM100 881q0 72 51 123t123 51t123.5 -51t51.5 -123t-51.5 -123t-123.5 -51t-123 51t-51 123z" />
<glyph unicode=";" horiz-adv-x="571" d="M100 -287l82 570h287l-154 -570h-215zM123 881q0 72 51 123t123 51t123 -51t51 -123t-51 -123t-123 -51t-123 51t-51 123z" />
<glyph unicode="&#x3c;" horiz-adv-x="1081" d="M92 600v236l897 389v-275l-596 -233l596 -232v-274z" />
<glyph unicode="=" horiz-adv-x="1075" d="M92 381v248h891v-248h-891zM92 805v248h891v-248h-891z" />
<glyph unicode="&#x3e;" horiz-adv-x="1081" d="M92 211v274l596 232l-596 233v275l897 -389v-236z" />
<glyph unicode="?" horiz-adv-x="1132" d="M72 1145q62 152 195 234.5t300 82.5q88 0 169.5 -26.5t146.5 -75.5t104 -127t39 -174q0 -72 -25.5 -137t-63.5 -109.5t-83 -90t-83 -80t-63.5 -77t-25.5 -84.5h-283q0 63 25.5 120.5t63.5 98.5t83 84.5t83 79t63.5 81.5t25.5 93q0 71 -48.5 110.5t-137.5 39.5 q-173 0 -244 -182zM367 147q0 72 51 123.5t123 51.5t123 -51.5t51 -123.5t-51 -123t-123 -51t-123 51t-51 123z" />
<glyph unicode="@" horiz-adv-x="1595" d="M68 512q0 203 96.5 372.5t268 269t380.5 99.5q133 0 249.5 -40t201 -109t145.5 -158.5t91 -190t30 -202.5q0 -214 -92 -329t-234 -115q-101 0 -170.5 42.5t-99.5 118.5q-78 -94 -203 -94q-131 0 -216 95.5t-85 240.5t85 240.5t216 95.5q111 0 187 -76v53h219v-473 q0 -149 118 -149q88 0 142.5 87.5t54.5 262.5t-84 320t-231 228t-324 83q-185 0 -338.5 -88t-242.5 -242.5t-89 -341.5q0 -143 53.5 -268t146.5 -213.5t224.5 -139.5t282.5 -51q195 0 332 51v-73q-136 -47 -332 -47q-221 0 -399.5 95t-280.5 264.5t-102 381.5zM653 512 q0 -61 37 -100t96 -39q57 0 93 39t36 100q0 63 -36 101t-93 38q-59 0 -96 -38t-37 -101z" />
<glyph unicode="A" horiz-adv-x="1368" d="M6 0l502 1434h350l504 -1434h-307l-86 258h-572l-86 -258h-305zM487 522h394l-197 586z" />
<glyph unicode="B" horiz-adv-x="1239" d="M133 0v1434h565q185 0 311 -113.5t126 -290.5t-136 -287q89 -51 139 -134.5t50 -192.5q0 -182 -129 -299t-318 -117h-608zM416 264h325q72 0 119 48t47 122q0 72 -47 120t-119 48h-325v-338zM416 854h282q66 0 110 45t44 113t-43.5 112.5t-110.5 44.5h-282v-315z" />
<glyph unicode="C" horiz-adv-x="1486" d="M68 717q0 208 95 378t266 268.5t384 98.5q195 0 359.5 -91.5t257.5 -246.5l-244 -141q-53 96 -152 150.5t-221 54.5q-209 0 -337 -131t-128 -340q0 -207 128 -338t337 -131q123 0 222.5 54.5t150.5 148.5l244 -142q-92 -155 -256.5 -246.5t-360.5 -91.5q-213 0 -384 99 t-266 269.5t-95 377.5z" />
<glyph unicode="D" horiz-adv-x="1460" d="M133 0v1434h569q146 0 274.5 -55.5t219.5 -151.5t144 -228.5t53 -281.5t-53 -281.5t-144 -228.5t-219.5 -151.5t-274.5 -55.5h-569zM416 270h286q186 0 303 124.5t117 322.5t-117 322t-303 124h-286v-893z" />
<glyph unicode="E" horiz-adv-x="1085" d="M133 0v1434h877v-271h-594v-305h542v-266h-542v-322h604v-270h-887z" />
<glyph unicode="F" horiz-adv-x="1062" d="M133 0v1434h856v-271h-573v-340h557v-270h-557v-553h-283z" />
<glyph unicode="G" horiz-adv-x="1607" d="M68 715q0 154 57.5 292t157 238t239 158.5t297.5 58.5q200 0 366 -91.5t259 -242.5l-242 -139q-51 89 -154.5 144t-230.5 55q-204 0 -336.5 -134.5t-132.5 -338.5q0 -203 134.5 -335t355.5 -132q165 0 272 73t145 199h-434v250h719v-111q0 -308 -196.5 -498t-507.5 -190 q-165 0 -309 59t-244 159t-157.5 237t-57.5 289z" />
<glyph unicode="H" horiz-adv-x="1361" d="M133 0v1434h283v-570h532v570h281v-1434h-281v594h-532v-594h-283z" />
<glyph unicode="I" horiz-adv-x="548" d="M133 0v1434h283v-1434h-283z" />
<glyph unicode="J" horiz-adv-x="1165" d="M68 244l243 139q35 -69 89 -102t141 -33q113 0 168 53t55 145v988h280v-988q0 -224 -141.5 -349.5t-361.5 -125.5q-165 0 -286 70t-187 203z" />
<glyph unicode="K" horiz-adv-x="1259" d="M133 0v1434h283v-633l491 633h326l-531 -697l551 -737h-325l-512 672v-672h-283z" />
<glyph unicode="L" horiz-adv-x="989" d="M133 0v1434h283v-1164h547v-270h-830z" />
<glyph unicode="M" horiz-adv-x="1669" d="M133 0v1434h291l412 -678l409 678h291v-1434h-281v930l-403 -666h-33l-403 664v-928h-283z" />
<glyph unicode="N" horiz-adv-x="1378" d="M133 0v1434h215l615 -875v875h282v-1434h-215l-614 877v-877h-283z" />
<glyph unicode="O" horiz-adv-x="1622" d="M68 717q0 206 99 377.5t269.5 269.5t374.5 98t375 -98t270.5 -269.5t99.5 -377.5t-99.5 -377.5t-270.5 -270t-375 -98.5q-153 0 -290.5 58t-236.5 157.5t-157.5 238t-58.5 292.5zM348 717q0 -204 133 -336.5t330 -132.5t330 132.5t133 336.5q0 205 -133 338t-330 133 t-330 -133t-133 -338z" />
<glyph unicode="P" horiz-adv-x="1208" d="M133 0v1434h535q206 0 347.5 -140t141.5 -342t-141.5 -341.5t-347.5 -139.5h-252v-471h-283zM416 735h252q90 0 149.5 62t59.5 155q0 94 -59 155.5t-150 61.5h-252v-434z" />
<glyph unicode="Q" horiz-adv-x="1632" d="M68 717q0 155 58.5 293.5t158 237t237 156.5t289.5 58t289.5 -58t237.5 -156.5t159 -237t59 -293.5q0 -279 -176 -484l148 -153l-201 -178l-156 161q-165 -92 -360 -92q-152 0 -289.5 58t-237 157.5t-158 238t-58.5 292.5zM348 717q0 -203 133.5 -336t329.5 -133 q80 0 160 26l-236 246l201 178l252 -262q86 123 86 281q0 135 -62 243.5t-167.5 168t-233.5 59.5t-233.5 -59.5t-167.5 -168t-62 -243.5z" />
<glyph unicode="R" horiz-adv-x="1257" d="M133 0v1434h574q130 0 240 -64t173.5 -173.5t63.5 -238.5q0 -133 -76 -246t-201 -171l318 -541h-305l-289 498h-215v-498h-283zM416 745h291q80 0 137 62t57 151t-57 150t-137 61h-291v-424z" />
<glyph unicode="S" horiz-adv-x="1193" d="M59 326l242 141q84 -219 330 -219q119 0 174 42.5t55 108.5q0 75 -68 117t-241 92q-75 22 -130 43t-115.5 56.5t-98.5 78.5t-63 107t-25 143q0 130 67 229t173 148t231 49q175 0 307 -84t205 -237l-238 -137q-41 88 -106 136t-168 48q-87 0 -138 -40.5t-51 -103.5 q0 -67 56.5 -109t216.5 -91q184 -58 262 -102q172 -94 201 -262q6 -37 6 -77q0 -198 -144 -315t-376 -117q-214 0 -359 95t-205 260z" />
<glyph unicode="T" horiz-adv-x="1105" d="M27 1163v271h1054v-271h-387v-1163h-282v1163h-385z" />
<glyph unicode="U" horiz-adv-x="1337" d="M121 469v965h280v-942q0 -112 64.5 -178t202.5 -66t202 66t64 178v942h283v-965q0 -151 -71.5 -265t-195.5 -173.5t-282 -59.5q-157 0 -280.5 59.5t-195 173.5t-71.5 265z" />
<glyph unicode="V" horiz-adv-x="1325" d="M6 1434h307l351 -1102l348 1102h309l-483 -1434h-351z" />
<glyph unicode="W" horiz-adv-x="2045" d="M31 1434h297l274 -1063l299 1063h242l301 -1063l274 1063h297l-401 -1434h-322l-270 946l-268 -946h-322z" />
<glyph unicode="X" horiz-adv-x="1249" d="M27 0l438 735l-416 699h320l256 -430l256 430h319l-416 -697l441 -737h-322l-278 467l-279 -467h-319z" />
<glyph unicode="Y" horiz-adv-x="1271" d="M6 1434h320l311 -598l311 598h320l-492 -875v-559h-280v559z" />
<glyph unicode="Z" horiz-adv-x="1095" d="M74 0v225l596 938h-582v271h942v-224l-596 -940h608v-270h-968z" />
<glyph unicode="[" horiz-adv-x="634" d="M109 -205v1843h485v-254h-221v-1335h221v-254h-485z" />
<glyph unicode="\" horiz-adv-x="1071" d="M68 1638h116l820 -1843h-117z" />
<glyph unicode="]" horiz-adv-x="634" d="M41 49h221v1335h-221v254h485v-1843h-485v254z" />
<glyph unicode="^" horiz-adv-x="1146" d="M82 758l391 676h201l391 -676h-285l-207 372l-206 -372h-285z" />
<glyph unicode="_" horiz-adv-x="1064" d="M68 -96h931v-254h-931v254z" />
<glyph unicode="`" horiz-adv-x="563" d="M41 1434l227 -281h254l-164 281h-317z" />
<glyph unicode="a" d="M68 512q0 227 146 384t351 157q213 0 334 -150v121h264v-1024h-264v121q-121 -150 -334 -150q-205 0 -351 157t-146 384zM332 512q0 -128 79.5 -208.5t202.5 -80.5q124 0 204.5 80.5t80.5 208.5t-80.5 208.5t-204.5 80.5q-123 0 -202.5 -80.5t-79.5 -208.5z" />
<glyph unicode="b" d="M121 0v1434h264v-531q118 150 332 150q135 0 250 -71t182.5 -195.5t67.5 -274.5t-67.5 -274.5t-182.5 -195.5t-250 -71q-214 0 -332 150v-121h-264zM385 512q0 -128 80 -208.5t203 -80.5q124 0 204 80.5t80 208.5t-80 208.5t-204 80.5q-123 0 -203 -80.5t-80 -208.5z" />
<glyph unicode="c" horiz-adv-x="1097" d="M68 512q0 151 69.5 274.5t193.5 195t277 71.5q149 0 272 -72.5t187 -192.5l-227 -133q-31 63 -93.5 100.5t-140.5 37.5q-119 0 -196.5 -79t-77.5 -202q0 -121 77.5 -200t196.5 -79q79 0 142 36.5t94 99.5l229 -131q-67 -122 -190.5 -194.5t-272.5 -72.5q-153 0 -277 71.5 t-193.5 195t-69.5 274.5z" />
<glyph unicode="d" d="M66 512q0 112 39.5 213t107 172.5t159.5 113.5t193 42q214 0 332 -150v531h264v-1434h-264v121q-118 -150 -332 -150q-101 0 -193 42t-159.5 113.5t-107 172.5t-39.5 213zM330 512q0 -128 80 -208.5t204 -80.5q123 0 203 80.5t80 208.5t-80 208.5t-203 80.5 q-124 0 -204 -80.5t-80 -208.5z" />
<glyph unicode="e" horiz-adv-x="1189" d="M68 512q0 232 151 386.5t389 154.5q148 0 267.5 -72.5t185 -196t65.5 -272.5q0 -51 -10 -109h-772q27 -97 103.5 -144.5t185.5 -47.5q74 0 134 28t95 74l213 -123q-73 -106 -186.5 -162.5t-259.5 -56.5q-126 0 -232 41.5t-178 114.5t-111.5 172t-39.5 213zM340 608h522 q-23 104 -93.5 155.5t-160.5 51.5q-105 0 -175 -54t-93 -153z" />
<glyph unicode="f" horiz-adv-x="671" d="M43 770v254h147v10q0 217 122 330q107 100 306 100q26 0 54 -2v-254q-18 1 -34 1q-82 0 -128 -33q-55 -41 -55 -142v-10h217v-254h-217v-770h-265v770h-147z" />
<glyph unicode="g" d="M68 528q0 142 66 262.5t184 191.5t260 71q210 0 327 -156v127h258v-975q0 -98 -29.5 -179.5t-80.5 -137.5t-119.5 -95t-145 -57t-159.5 -18q-167 0 -293 63.5t-193 186.5l226 129q24 -44 53.5 -73.5t84.5 -50t130 -20.5q126 0 197 66t71 186v111q-117 -156 -327 -156 q-143 0 -260.5 70.5t-183.5 190.5t-66 263zM332 528q0 -123 80.5 -201.5t205.5 -78.5t206 78.5t81 201.5q0 121 -81 200t-206 79t-205.5 -79t-80.5 -200z" />
<glyph unicode="h" horiz-adv-x="1181" d="M121 0v1434h264v-525q46 69 124.5 106.5t180.5 37.5q169 0 278 -113t109 -311v-629h-264v596q0 102 -55.5 156.5t-147.5 54.5q-102 0 -163.5 -63t-61.5 -191v-553h-264z" />
<glyph unicode="i" horiz-adv-x="505" d="M90 1309q0 66 48 115t114 49q67 0 115.5 -49t48.5 -115t-48.5 -114t-115.5 -48q-66 0 -114 48t-48 114zM121 0v1024h264v-1024h-264z" />
<glyph unicode="j" horiz-adv-x="540" d="M-27 -184q13 -1 25 -1q76 0 114 33q44 39 44 132v1044h264v-1044q0 -226 -110 -328q-98 -91 -287 -91q-24 0 -50 1v254zM125 1309q0 66 48.5 115t115.5 49q66 0 114 -49t48 -115t-48 -114t-114 -48q-67 0 -115.5 48t-48.5 114z" />
<glyph unicode="k" horiz-adv-x="1075" d="M121 0v1434h264v-861l352 451h316l-412 -506l424 -518h-307l-373 465v-465h-264z" />
<glyph unicode="l" horiz-adv-x="505" d="M121 0v1495h264v-1495h-264z" />
<glyph unicode="m" horiz-adv-x="1744" d="M121 0v1024h264v-109q91 138 285 138q188 0 278 -148q101 148 305 148q175 0 281 -115t106 -307v-631h-264v612q0 92 -45 143.5t-127 51.5q-89 0 -139.5 -59.5t-50.5 -172.5v-575h-264v612q0 92 -45 143.5t-127 51.5q-88 0 -140.5 -60t-52.5 -172v-575h-264z" />
<glyph unicode="n" horiz-adv-x="1181" d="M121 0v1024h264v-115q46 69 124.5 106.5t180.5 37.5q169 0 278 -113t109 -311v-629h-264v596q0 102 -55.5 156.5t-147.5 54.5q-102 0 -163.5 -63t-61.5 -191v-553h-264z" />
<glyph unicode="o" horiz-adv-x="1216" d="M68 512q0 150 72 274.5t196 195.5t272 71q149 0 273.5 -71t197 -195.5t72.5 -274.5t-72.5 -274.5t-197 -195.5t-273.5 -71q-148 0 -272 71t-196 195.5t-72 274.5zM332 512q0 -123 79 -203t197 -80q120 0 199.5 79.5t79.5 203.5t-79.5 203.5t-199.5 79.5q-118 0 -197 -80 t-79 -203z" />
<glyph unicode="p" d="M121 -410v1434h264v-121q118 150 332 150q135 0 250 -71t182.5 -195.5t67.5 -274.5t-67.5 -274.5t-182.5 -195.5t-250 -71q-214 0 -332 150v-531h-264zM385 512q0 -128 80 -208.5t203 -80.5q124 0 204 80.5t80 208.5t-80 208.5t-204 80.5q-123 0 -203 -80.5t-80 -208.5z " />
<glyph unicode="q" d="M66 512q0 112 39.5 213t107 172.5t159.5 113.5t193 42q214 0 332 -150v121h264v-1434h-264v531q-118 -150 -332 -150q-101 0 -193 42t-159.5 113.5t-107 172.5t-39.5 213zM330 512q0 -128 80 -208.5t204 -80.5q123 0 203 80.5t80 208.5t-80 208.5t-203 80.5 q-124 0 -204 -80.5t-80 -208.5z" />
<glyph unicode="r" horiz-adv-x="729" d="M121 0v1024h264v-176q38 99 122.5 147.5t188.5 48.5v-294q-20 2 -39 2q-33 0 -67 -6q-52 -10 -99.5 -39t-76.5 -85t-29 -133v-489h-264z" />
<glyph unicode="s" horiz-adv-x="952" d="M51 215l230 129q22 -64 73 -98.5t127 -34.5q65 0 103.5 22.5t38.5 65.5q0 30 -29 51.5t-76 36.5t-103.5 30t-112.5 38t-103 55.5t-76 88t-29 128.5q0 151 112 238.5t277 87.5q126 0 228 -56t161 -161l-225 -123q-49 104 -164 104q-52 0 -85 -22t-33 -62q0 -27 22.5 -47 t60 -32t85 -26t96.5 -27.5t96.5 -38.5t85 -57t60 -85t22.5 -121q0 -106 -58 -182t-149.5 -111t-204.5 -35q-154 0 -264 62.5t-166 181.5z" />
<glyph unicode="t" horiz-adv-x="788" d="M33 770v254h178v207l264 80v-287h232v-254h-232v-426q0 -53 27 -78q26 -26 78 -28q20 -1 43 -1q37 0 84 3v-240q-73 -8 -133 -8q-94 0 -161 19q-109 31 -155.5 111t-46.5 222v426h-178z" />
<glyph unicode="u" horiz-adv-x="1181" d="M104 395v629h265v-596q0 -102 55 -156.5t147 -54.5q102 0 164 63t62 191v553h264v-1024h-264v115q-46 -69 -124.5 -106.5t-180.5 -37.5q-169 0 -278.5 113t-109.5 311z" />
<glyph unicode="v" horiz-adv-x="1091" d="M6 1024h291l248 -717l250 717h290l-389 -1024h-301z" />
<glyph unicode="w" horiz-adv-x="1576" d="M23 1024h280l174 -629l187 629h249l187 -631l174 631h280l-325 -1024h-252l-189 621l-188 -621h-252z" />
<glyph unicode="x" horiz-adv-x="1075" d="M10 0l375 522l-358 502h305l207 -289l206 289h304l-359 -500l375 -524h-305l-221 311l-224 -311h-305z" />
<glyph unicode="y" horiz-adv-x="1075" d="M6 1024h289l266 -688l227 688h283l-373 -1024q-79 -220 -212 -320q-119 -91 -290 -91q-19 0 -38 1v246h4q104 0 165 46q62 46 99 151z" />
<glyph unicode="z" horiz-adv-x="970" d="M88 0v176l432 600h-411v248h768v-176l-435 -600h455v-248h-809z" />
<glyph unicode="{" horiz-adv-x="735" d="M102 592v256q83 -7 122.5 18.5t39.5 108.5v303q0 410 430 381v-254q-86 10 -126 -16.5t-40 -110.5v-303q0 -187 -122 -254q122 -70 122 -256v-303q0 -84 40 -110.5t126 -16.5v-254q-430 -29 -430 381v303q0 83 -39.5 108.5t-122.5 18.5z" />
<glyph unicode="|" horiz-adv-x="530" d="M133 -410v1885h264v-1885h-264z" />
<glyph unicode="}" horiz-adv-x="735" d="M41 35q86 -10 126 16.5t40 110.5v303q0 185 123 256q-123 68 -123 254v303q0 84 -40 110.5t-126 16.5v254q430 29 430 -381v-303q0 -83 39.5 -108.5t122.5 -18.5v-256q-83 7 -122.5 -18.5t-39.5 -108.5v-303q0 -410 -430 -381v254z" />
<glyph unicode="~" horiz-adv-x="1226" d="M92 625q36 134 113 207t178 76.5t221 -50.5q82 -39 130 -55t85.5 -11t58.5 32t42 83l215 -104q-36 -134 -113 -207.5t-178 -76.5t-221 52q-66 31 -108 46t-77.5 20t-57.5 -7.5t-39.5 -37.5t-33.5 -70z" />
<glyph unicode="&#xa1;" horiz-adv-x="548" d="M100 877q0 72 51 123t123 51t123.5 -51t51.5 -123t-51.5 -123.5t-123.5 -51.5t-123 51.5t-51 123.5zM115 0l55 543h209l53 -543v-410h-317v410z" />
<glyph unicode="&#xa2;" horiz-adv-x="1097" d="M68 717q0 230 154 385t386 155q55 0 99 -8l59 185h119l-70 -217q81 -32 146.5 -90.5t105.5 -133.5l-227 -133q-35 72 -107 107l-168 -527q12 -2 41 -2q79 0 142 36t94 99l229 -131q-67 -122 -190.5 -194t-272.5 -72q-70 0 -125 14l-61 -190h-119l72 225q-141 64 -224 195 t-83 297zM332 717q0 -77 33.5 -139.5t91.5 -98.5l168 518h-19q-119 0 -196.5 -78.5t-77.5 -201.5z" />
<glyph unicode="&#xa3;" horiz-adv-x="1189" d="M68 0v272h149v289h-125v248h125v205q0 90 26 165.5t69.5 127t102 87t122.5 52t131 16.5q155 0 270.5 -79t173.5 -220l-244 -139q-27 83 -73 123.5t-121 40.5q-76 0 -126 -47t-50 -137v-195h415v-248h-415v-289h669v-272h-1099z" />
<glyph unicode="&#xa4;" horiz-adv-x="1112" d="M68 305l141 144q-92 116 -92 268q0 151 92 270l-141 141l77 78l144 -143q120 86 268 86q146 0 266 -86l146 143l78 -78l-144 -143q92 -119 92 -268q0 -152 -92 -268l144 -144l-78 -78l-146 146q-113 -86 -266 -86q-151 0 -268 84l-144 -144zM379 717q0 -79 49.5 -129.5 t128.5 -50.5q78 0 128 51t50 129q0 79 -50 129.5t-128 50.5q-79 0 -128.5 -50t-49.5 -130z" />
<glyph unicode="&#xa5;" horiz-adv-x="1230" d="M6 1434h320l311 -598l311 598h320l-389 -693h208v-163h-301l-10 -19v-74h311v-166h-311v-319h-280v319h-351v166h351v74l-11 19h-340v163h248z" />
<glyph unicode="&#xa6;" horiz-adv-x="530" d="M133 348h264v-758h-264v758zM133 717v758h264v-758h-264z" />
<glyph unicode="&#xa7;" horiz-adv-x="1110" d="M100 666q0 160 127 256q-61 80 -61 202q0 158 114 248t277 90q135 0 245 -66t165 -192l-217 -119q-66 144 -193 144q-58 0 -92.5 -28t-34.5 -77q0 -39 38.5 -73.5t75.5 -51.5t125 -52q28 -11 42 -17q69 -28 118.5 -54.5t100.5 -68t77.5 -98.5t26.5 -127q0 -78 -32 -146.5 t-89 -116.5q68 -85 68 -204q0 -110 -56.5 -189t-148 -117t-207.5 -38q-343 0 -452 258l235 135q56 -160 217 -160q72 0 110 29.5t38 81.5q0 19 -8 35.5t-26 31.5t-36 27t-50 26t-55 23.5t-63.5 25t-64.5 25.5q-68 29 -116.5 57t-97.5 70.5t-74.5 100.5t-25.5 129zM365 680 q0 -56 43.5 -93t121.5 -67q20 -8 87.5 -31t105.5 -40q47 41 47 102q0 60 -45 95.5t-137 72.5q-145 53 -174 65q-49 -37 -49 -104z" />
<glyph unicode="&#xa8;" horiz-adv-x="747" d="M41 1262q0 57 41 98t98 41t97 -41t40 -98t-40 -97.5t-97 -40.5t-98 40.5t-41 97.5zM430 1262q0 57 41 98t98 41t97.5 -41t40.5 -98t-40.5 -97.5t-97.5 -40.5t-98 40.5t-41 97.5z" />
<glyph unicode="&#xa9;" horiz-adv-x="1615" d="M68 717q0 151 58.5 288.5t157.5 236.5t236.5 157.5t288.5 58.5t288.5 -58.5t236.5 -157.5t157.5 -236.5t58.5 -288.5q0 -202 -99 -372.5t-269.5 -270t-372.5 -99.5t-372.5 99.5t-269.5 270t-99 372.5zM143 717q0 -183 89 -337.5t242.5 -244.5t334.5 -90q180 0 333 90 t242 244.5t89 337.5t-89 337.5t-242 244.5t-333 90q-181 0 -334.5 -90t-242.5 -244.5t-89 -337.5zM410 717q0 165 119 283t286 118q106 0 198 -52t144 -144l-196 -115q-20 37 -59.5 60.5t-92.5 23.5q-77 0 -124.5 -51.5t-47.5 -122.5t47.5 -122.5t124.5 -51.5q53 0 92.5 24 t59.5 62l198 -117q-52 -91 -145 -144t-199 -53q-167 0 -286 118.5t-119 283.5z" />
<glyph unicode="&#xab;" horiz-adv-x="1116" d="M129 633l225 385h244l-225 -385l225 -383h-244zM518 633l225 385h244l-225 -385l225 -383h-244z" />
<glyph unicode="&#xac;" horiz-adv-x="1126" d="M92 594v248h942v-492h-264v244h-678z" />
<glyph unicode="&#xad;" horiz-adv-x="1034" d="M133 492v253h768v-253h-768z" />
<glyph unicode="&#xae;" horiz-adv-x="1615" d="M68 717q0 151 58.5 288.5t157.5 236.5t236.5 157.5t288.5 58.5t288.5 -58.5t236.5 -157.5t157.5 -236.5t58.5 -288.5q0 -202 -99 -372.5t-269.5 -270t-372.5 -99.5t-372.5 99.5t-269.5 270t-99 372.5zM143 717q0 -183 89 -337.5t242.5 -244.5t334.5 -90q180 0 333 90 t242 244.5t89 337.5t-89 337.5t-242 244.5t-333 90q-181 0 -334.5 -90t-242.5 -244.5t-89 -337.5zM528 338v758h306q124 0 208 -70t84 -182q0 -150 -112 -228l155 -278h-235l-109 225h-77v-225h-220zM748 748h67q42 0 67 20t25 53q0 76 -92 76h-67v-149z" />
<glyph unicode="&#xaf;" horiz-adv-x="675" d="M41 1155v215h594v-215h-594z" />
<glyph unicode="&#xb0;" horiz-adv-x="821" d="M68 1321q0 141 98 239.5t246 98.5t246 -98.5t98 -239.5t-97 -239.5t-247 -98.5q-147 0 -245.5 99t-98.5 239zM291 1321q0 -53 34 -88t87 -35q54 0 87 34.5t33 88.5q0 53 -33.5 88t-86.5 35t-87 -35t-34 -88z" />
<glyph unicode="&#xb1;" horiz-adv-x="1136" d="M109 109v247h921v-247h-921zM109 780v248h335v299h248v-299h338v-248h-338v-299h-248v299h-335z" />
<glyph unicode="&#xb4;" horiz-adv-x="563" d="M41 1153h254l227 281h-317z" />
<glyph unicode="&#xb5;" horiz-adv-x="1263" d="M121 -410v1434h264v-594q0 -103 55.5 -158t147.5 -55q102 0 163.5 63t61.5 191v553h264v-711q0 -31 17.5 -48t48.5 -17h74v-248h-123q-155 0 -228 102q-96 -131 -297 -131q-107 0 -184 45v-426h-264z" />
<glyph unicode="&#xb6;" horiz-adv-x="1370" d="M51 993q0 183 129 312t312 129h784v-232h-127v-1612h-248v1612h-162v-1612h-247v963q-120 0 -221.5 59t-160.5 160.5t-59 220.5z" />
<glyph unicode="&#xb7;" horiz-adv-x="548" d="M100 711q0 72 51 123t123 51t123.5 -51t51.5 -123t-51.5 -123t-123.5 -51t-123 51t-51 123z" />
<glyph unicode="&#xb8;" horiz-adv-x="532" d="M41 -256q221 -15 221 41q0 23 -32 34.5t-97 16.5v164h215v-94q60 -14 102 -54.5t42 -105.5q0 -214 -451 -188v186z" />
<glyph unicode="&#xbb;" horiz-adv-x="1116" d="M129 250l225 383l-225 385h244l225 -385l-225 -383h-244zM518 250l225 383l-225 385h244l225 -385l-225 -383h-244z" />
<glyph unicode="&#xbc;" horiz-adv-x="1667" d="M6 1346l246 88h192v-820h-219v598l-168 -47zM240 0l819 1434h184l-819 -1434h-184zM958 131v201l265 487h233l-252 -487h137v141h209v-141h84v-201h-84v-131h-209v131h-383z" />
<glyph unicode="&#xbd;" horiz-adv-x="1665" d="M6 1346l246 88h192v-820h-219v598l-168 -47zM240 0l819 1434h184l-819 -1434h-184zM975 645q40 94 118.5 148.5t188.5 54.5q130 0 216.5 -72.5t86.5 -185.5q0 -72 -36 -134.5t-103 -129.5l-133 -127h284v-199h-612v143l307 306q72 69 72 124q0 34 -23 54t-61 20 q-84 0 -127 -104z" />
<glyph unicode="&#xbe;" horiz-adv-x="1832" d="M20 768l185 106q36 -96 135 -96q47 0 72.5 22t25.5 62q0 38 -29 60t-75 22h-39l-82 119l141 172h-297v199h564v-162l-148 -176q88 -25 136 -85.5t48 -148.5q0 -132 -84 -204t-233 -72q-238 0 -320 182zM406 0l819 1434h184l-819 -1434h-184zM1124 131v201l265 487h233 l-252 -487h137v141h209v-141h84v-201h-84v-131h-209v131h-383z" />
<glyph unicode="&#xbf;" horiz-adv-x="1132" d="M106 -35q0 62 19 118.5t49.5 99t67 81.5t73.5 73t67.5 66t49.5 68t19 72h282q0 -63 -25.5 -120.5t-63.5 -98.5t-83 -84.5t-83 -79t-63.5 -81.5t-25.5 -93q0 -71 48.5 -110.5t137.5 -39.5q173 0 244 182l242 -139q-62 -152 -195.5 -234.5t-300.5 -82.5q-88 0 -169.5 26.5 t-146.5 75.5t-104 127t-39 174zM418 877q0 72 51 123t123 51t123 -51t51 -123t-51 -123.5t-123 -51.5t-123 51.5t-51 123.5z" />
<glyph unicode="&#xc0;" horiz-adv-x="1368" d="M6 0l502 1434h350l504 -1434h-307l-86 258h-572l-86 -258h-305zM371 1843h317l164 -280h-254zM487 522h394l-197 586z" />
<glyph unicode="&#xc1;" horiz-adv-x="1368" d="M6 0l502 1434h350l504 -1434h-307l-86 258h-572l-86 -258h-305zM487 522h394l-197 586zM520 1563l164 280h317l-227 -280h-254z" />
<glyph unicode="&#xc2;" horiz-adv-x="1368" d="M6 0l502 1434h350l504 -1434h-307l-86 258h-572l-86 -258h-305zM326 1546l217 297h268l217 -297h-262l-88 133l-90 -133h-262zM487 522h394l-197 586z" />
<glyph unicode="&#xc3;" horiz-adv-x="1368" d="M6 0l502 1434h350l504 -1434h-307l-86 258h-572l-86 -258h-305zM336 1556q0 95 22 161.5t58.5 99.5t85 42t101 -6t106.5 -49q60 -41 83 -33t23 82h215q0 -94 -22 -161t-59 -99.5t-85.5 -41.5t-101 6t-105.5 49q-60 41 -84 32.5t-24 -82.5h-213zM487 522h394l-197 586z " />
<glyph unicode="&#xc4;" horiz-adv-x="1368" d="M6 0l502 1434h350l504 -1434h-307l-86 258h-572l-86 -258h-305zM350 1671q0 57 41 98t98 41t97.5 -41t40.5 -98t-40.5 -97t-97.5 -40t-98 40t-41 97zM487 522h394l-197 586zM739 1671q0 57 41.5 98t98.5 41t97 -41t40 -98t-40 -97t-97 -40t-98.5 40t-41.5 97z" />
<glyph unicode="&#xc5;" horiz-adv-x="1368" d="M6 0l490 1401q-70 70 -70 172q0 104 72.5 173t185.5 69q115 0 186.5 -69t71.5 -173q0 -105 -72 -174l492 -1399h-307l-86 258h-572l-86 -258h-305zM487 522h394l-197 586zM604 1573q0 -35 21.5 -56.5t58.5 -21.5q40 0 61 21.5t21 56.5q0 34 -21 55t-61 21 q-37 0 -58.5 -21.5t-21.5 -54.5z" />
<glyph unicode="&#xc6;" horiz-adv-x="1802" d="M0 0l848 1434h878v-271h-530v-305h483v-266h-483v-322h541v-270h-815v258h-453l-152 -258h-317zM625 522h297v504z" />
<glyph unicode="&#xc7;" horiz-adv-x="1486" d="M68 717q0 208 95 378t266 268.5t384 98.5q195 0 359.5 -91.5t257.5 -246.5l-244 -141q-53 96 -152 150.5t-221 54.5q-209 0 -337 -131t-128 -340q0 -207 128 -338t337 -131q123 0 222.5 54.5t150.5 148.5l244 -142q-76 -130 -207 -216.5t-291 -112.5v-74 q60 -14 101.5 -54.5t41.5 -105.5q0 -214 -450 -188v186q221 -15 221 41q0 23 -32 34.5t-97 16.5v141q-189 21 -337 123.5t-230 263.5t-82 353z" />
<glyph unicode="&#xc8;" horiz-adv-x="1085" d="M133 0v1434h877v-271h-594v-305h542v-266h-542v-322h604v-270h-887zM258 1843h317l164 -280h-254z" />
<glyph unicode="&#xc9;" horiz-adv-x="1085" d="M133 0v1434h877v-271h-594v-305h542v-266h-542v-322h604v-270h-887zM408 1563l163 280h318l-227 -280h-254z" />
<glyph unicode="&#xca;" horiz-adv-x="1085" d="M133 0v1434h877v-271h-594v-305h542v-266h-542v-322h604v-270h-887zM213 1546l217 297h268l217 -297h-262l-88 133l-90 -133h-262z" />
<glyph unicode="&#xcb;" horiz-adv-x="1085" d="M133 0v1434h877v-271h-594v-305h542v-266h-542v-322h604v-270h-887zM238 1671q0 57 41 98t98 41t97 -41t40 -98t-40 -97t-97 -40t-98 40t-41 97zM627 1671q0 57 41 98t98 41t97 -41t40 -98t-40 -97t-97 -40t-98 40t-41 97z" />
<glyph unicode="&#xcc;" horiz-adv-x="548" d="M-39 1843l227 -280h254l-163 280h-318zM133 0v1434h283v-1434h-283z" />
<glyph unicode="&#xcd;" horiz-adv-x="548" d="M111 1563h254l227 280h-318zM133 0v1434h283v-1434h-283z" />
<glyph unicode="&#xce;" horiz-adv-x="548" d="M-84 1546l217 297h268l217 -297h-262l-88 133l-90 -133h-262zM133 0v1434h283v-1434h-283z" />
<glyph unicode="&#xcf;" horiz-adv-x="548" d="M-59 1671q0 57 41 98t98 41t97 -41t40 -98t-40 -97t-97 -40t-98 40t-41 97zM133 0v1434h283v-1434h-283zM330 1671q0 57 41 98t98 41t97 -41t40 -98t-40 -97t-97 -40t-98 40t-41 97z" />
<glyph unicode="&#xd0;" horiz-adv-x="1531" d="M45 575v254h160v605h569q194 0 352.5 -94.5t248 -259t89.5 -363.5t-89.5 -363.5t-248 -259t-352.5 -94.5h-569v575h-160zM487 270h287q186 0 303 124.5t117 322.5t-117 322t-303 124h-287v-334h326v-254h-326v-305z" />
<glyph unicode="&#xd1;" horiz-adv-x="1378" d="M133 0v1434h215l615 -875v875h282v-1434h-215l-614 877v-877h-283zM326 1556q0 95 22 161.5t58.5 99.5t84.5 42t100.5 -6t106.5 -49q60 -41 83.5 -33t23.5 82h215q0 -94 -22 -161t-59 -99.5t-85.5 -41.5t-101 6t-105.5 49q-60 41 -84 32.5t-24 -82.5h-213z" />
<glyph unicode="&#xd2;" horiz-adv-x="1622" d="M68 717q0 206 99 377.5t269.5 269.5t374.5 98t375 -98t270.5 -269.5t99.5 -377.5t-99.5 -377.5t-270.5 -270t-375 -98.5q-153 0 -290.5 58t-236.5 157.5t-157.5 238t-58.5 292.5zM348 717q0 -204 133 -336.5t330 -132.5t330 132.5t133 336.5q0 205 -133 338t-330 133 t-330 -133t-133 -338zM498 1860l227 -281h254l-164 281h-317z" />
<glyph unicode="&#xd3;" horiz-adv-x="1622" d="M68 717q0 206 99 377.5t269.5 269.5t374.5 98t375 -98t270.5 -269.5t99.5 -377.5t-99.5 -377.5t-270.5 -270t-375 -98.5q-153 0 -290.5 58t-236.5 157.5t-157.5 238t-58.5 292.5zM348 717q0 -204 133 -336.5t330 -132.5t330 132.5t133 336.5q0 205 -133 338t-330 133 t-330 -133t-133 -338zM647 1579h254l227 281h-317z" />
<glyph unicode="&#xd4;" horiz-adv-x="1622" d="M68 717q0 206 99 377.5t269.5 269.5t374.5 98t375 -98t270.5 -269.5t99.5 -377.5t-99.5 -377.5t-270.5 -270t-375 -98.5q-153 0 -290.5 58t-236.5 157.5t-157.5 238t-58.5 292.5zM348 717q0 -204 133 -336.5t330 -132.5t330 132.5t133 336.5q0 205 -133 338t-330 133 t-330 -133t-133 -338zM453 1563l217 297h268l217 -297h-262l-88 133l-90 -133h-262z" />
<glyph unicode="&#xd5;" horiz-adv-x="1622" d="M68 717q0 206 99 377.5t269.5 269.5t374.5 98t375 -98t270.5 -269.5t99.5 -377.5t-99.5 -377.5t-270.5 -270t-375 -98.5q-153 0 -290.5 58t-236.5 157.5t-157.5 238t-58.5 292.5zM348 717q0 -204 133 -336.5t330 -132.5t330 132.5t133 336.5q0 205 -133 338t-330 133 t-330 -133t-133 -338zM463 1573q0 95 22 161.5t58.5 99.5t85 42t101 -6t106.5 -49q60 -41 83 -33t23 82h215q0 -94 -22 -161t-59 -100t-85.5 -42t-101 6t-105.5 49q-60 41 -84 33t-24 -82h-213z" />
<glyph unicode="&#xd6;" horiz-adv-x="1622" d="M68 717q0 206 99 377.5t269.5 269.5t374.5 98t375 -98t270.5 -269.5t99.5 -377.5t-99.5 -377.5t-270.5 -270t-375 -98.5q-153 0 -290.5 58t-236.5 157.5t-157.5 238t-58.5 292.5zM348 717q0 -204 133 -336.5t330 -132.5t330 132.5t133 336.5q0 205 -133 338t-330 133 t-330 -133t-133 -338zM477 1688q0 57 41 98t98 41t97.5 -41t40.5 -98t-40.5 -97.5t-97.5 -40.5t-98 40.5t-41 97.5zM866 1688q0 57 41.5 98t98.5 41t97 -41t40 -98t-40 -97.5t-97 -40.5t-98.5 40.5t-41.5 97.5z" />
<glyph unicode="&#xd7;" horiz-adv-x="1048" d="M102 469l248 248l-248 248l177 172l245 -246l246 246l176 -172l-248 -248l248 -248l-176 -172l-246 246l-245 -246z" />
<glyph unicode="&#xd8;" horiz-adv-x="1634" d="M80 717q0 206 99 377.5t269.5 269.5t374.5 98q226 0 414 -123l96 117l140 -80l-113 -137q99 -102 154 -236.5t55 -285.5q0 -154 -59 -292.5t-158.5 -238t-237.5 -157.5t-291 -58q-227 0 -411 123l-97 -117l-139 82l113 136q-99 104 -154 237.5t-55 284.5zM360 717 q0 -181 107 -307l594 716q-111 62 -238 62q-197 0 -330 -133t-133 -338zM588 307q106 -59 235 -59q197 0 330 132.5t133 336.5q0 181 -104 307z" />
<glyph unicode="&#xd9;" horiz-adv-x="1337" d="M121 469v965h280v-942q0 -112 64.5 -178t202.5 -66t202 66t64 178v942h283v-965q0 -151 -71.5 -265t-195.5 -173.5t-282 -59.5q-157 0 -280.5 59.5t-195 173.5t-71.5 265zM354 1843l228 -280h254l-164 280h-318z" />
<glyph unicode="&#xda;" horiz-adv-x="1337" d="M121 469v965h280v-942q0 -112 64.5 -178t202.5 -66t202 66t64 178v942h283v-965q0 -151 -71.5 -265t-195.5 -173.5t-282 -59.5q-157 0 -280.5 59.5t-195 173.5t-71.5 265zM504 1563h254l227 280h-317z" />
<glyph unicode="&#xdb;" horiz-adv-x="1337" d="M121 469v965h280v-942q0 -112 64.5 -178t202.5 -66t202 66t64 178v942h283v-965q0 -151 -71.5 -265t-195.5 -173.5t-282 -59.5q-157 0 -280.5 59.5t-195 173.5t-71.5 265zM309 1546l217 297h269l217 -297h-262l-88 133l-91 -133h-262z" />
<glyph unicode="&#xdc;" horiz-adv-x="1337" d="M121 469v965h280v-942q0 -112 64.5 -178t202.5 -66t202 66t64 178v942h283v-965q0 -151 -71.5 -265t-195.5 -173.5t-282 -59.5q-157 0 -280.5 59.5t-195 173.5t-71.5 265zM334 1671q0 57 41 98t98 41t97 -41t40 -98t-40 -97t-97 -40t-98 40t-41 97zM723 1671q0 57 41 98 t98 41t97 -41t40 -98t-40 -97t-97 -40t-98 40t-41 97z" />
<glyph unicode="&#xdd;" horiz-adv-x="1271" d="M6 1434h320l311 -598l311 598h320l-492 -875v-559h-280v559zM471 1563l164 280h317l-227 -280h-254z" />
<glyph unicode="&#xde;" horiz-adv-x="1208" d="M133 0v1434h283v-236h260q201 0 341 -140t140 -341t-140 -341t-341 -140h-260v-236h-283zM416 500h260q85 0 143 62.5t58 154.5q0 93 -58 155t-143 62h-260v-434z" />
<glyph unicode="&#xdf;" horiz-adv-x="1099" d="M121 0v1040q0 193 119 307.5t319 114.5q179 0 286 -97t107 -235q0 -48 -12.5 -90t-31 -71t-36.5 -54.5t-30.5 -51t-12.5 -48.5q0 -33 24.5 -76.5t59.5 -90t70 -98t59.5 -118.5t24.5 -135q0 -59 -15 -108t-51.5 -92t-92 -70t-141.5 -38t-196 -1v233q124 -11 178 20.5 t54 100.5q0 38 -25 86t-61 94.5t-72 93.5t-61 95.5t-25 87.5q0 38 20 77t44.5 67t44.5 68t20 79q0 56 -37.5 93.5t-101.5 37.5q-72 0 -118 -45t-46 -134v-1042h-264z" />
<glyph unicode="&#xe0;" d="M68 512q0 227 146 384t351 157q213 0 334 -150v121h264v-1024h-264v121q-121 -150 -334 -150q-205 0 -351 157t-146 384zM319 1434h318l164 -281h-254zM332 512q0 -128 79.5 -208.5t202.5 -80.5q124 0 204.5 80.5t80.5 208.5t-80.5 208.5t-204.5 80.5 q-123 0 -202.5 -80.5t-79.5 -208.5z" />
<glyph unicode="&#xe1;" d="M68 512q0 227 146 384t351 157q213 0 334 -150v121h264v-1024h-264v121q-121 -150 -334 -150q-205 0 -351 157t-146 384zM332 512q0 -128 79.5 -208.5t202.5 -80.5q124 0 204.5 80.5t80.5 208.5t-80.5 208.5t-204.5 80.5q-123 0 -202.5 -80.5t-79.5 -208.5zM469 1153 l164 281h317l-227 -281h-254z" />
<glyph unicode="&#xe2;" d="M68 512q0 227 146 384t351 157q213 0 334 -150v121h264v-1024h-264v121q-121 -150 -334 -150q-205 0 -351 157t-146 384zM274 1137l218 297h268l217 -297h-262l-88 133l-90 -133h-263zM332 512q0 -128 79.5 -208.5t202.5 -80.5q124 0 204.5 80.5t80.5 208.5t-80.5 208.5 t-204.5 80.5q-123 0 -202.5 -80.5t-79.5 -208.5z" />
<glyph unicode="&#xe3;" d="M68 512q0 227 146 384t351 157q213 0 334 -150v121h264v-1024h-264v121q-121 -150 -334 -150q-205 0 -351 157t-146 384zM285 1147q0 95 22 161.5t58.5 99.5t84.5 42t100.5 -6t106.5 -49q60 -41 83.5 -33t23.5 82h215q0 -94 -22 -161t-59 -100t-85.5 -42t-101 6 t-105.5 49q-60 41 -84 33t-24 -82h-213zM332 512q0 -128 79.5 -208.5t202.5 -80.5q124 0 204.5 80.5t80.5 208.5t-80.5 208.5t-204.5 80.5q-123 0 -202.5 -80.5t-79.5 -208.5z" />
<glyph unicode="&#xe4;" d="M68 512q0 227 146 384t351 157q213 0 334 -150v121h264v-1024h-264v121q-121 -150 -334 -150q-205 0 -351 157t-146 384zM299 1262q0 57 41 98t98 41t97 -41t40 -98t-40 -97.5t-97 -40.5t-98 40.5t-41 97.5zM332 512q0 -128 79.5 -208.5t202.5 -80.5q124 0 204.5 80.5 t80.5 208.5t-80.5 208.5t-204.5 80.5q-123 0 -202.5 -80.5t-79.5 -208.5zM688 1262q0 57 41 98t98 41t97.5 -41t40.5 -98t-40.5 -97.5t-97.5 -40.5t-98 40.5t-41 97.5z" />
<glyph unicode="&#xe5;" d="M68 512q0 227 146 384t351 157q213 0 334 -150v121h264v-1024h-264v121q-121 -150 -334 -150q-205 0 -351 157t-146 384zM332 512q0 -128 79.5 -208.5t202.5 -80.5q124 0 204.5 80.5t80.5 208.5t-80.5 208.5t-204.5 80.5q-123 0 -202.5 -80.5t-79.5 -208.5zM375 1348 q0 104 72.5 172.5t185.5 68.5q115 0 186.5 -68.5t71.5 -172.5q0 -106 -71.5 -175t-186.5 -69q-113 0 -185.5 69.5t-72.5 174.5zM553 1348q0 -35 21.5 -56.5t58.5 -21.5q40 0 61 21.5t21 56.5q0 34 -21 54.5t-61 20.5q-37 0 -58.5 -21t-21.5 -54z" />
<glyph unicode="&#xe6;" horiz-adv-x="2023" d="M68 512q0 227 146 384t351 157q213 0 334 -150v121h248v-127q130 156 340 156q147 0 256 -73t163 -194.5t54 -273.5q0 -51 -10 -109h-772q28 -97 104.5 -144.5t181.5 -47.5q75 0 136 28t96 74l213 -123q-75 -109 -174 -164t-240 -55q-216 0 -348 158v-129h-248v121 q-121 -150 -334 -150q-205 0 -351 157t-146 384zM332 512q0 -128 79.5 -208.5t202.5 -80.5q124 0 204.5 80.5t80.5 208.5t-80.5 208.5t-204.5 80.5q-123 0 -202.5 -80.5t-79.5 -208.5zM1174 610h522q-22 104 -91 154.5t-161 50.5q-105 0 -175 -54t-95 -151z" />
<glyph unicode="&#xe7;" horiz-adv-x="1097" d="M68 512q0 151 69.5 274.5t193.5 195t277 71.5q149 0 272 -72.5t187 -192.5l-227 -133q-31 63 -93.5 100.5t-140.5 37.5q-119 0 -196.5 -79t-77.5 -202q0 -121 77.5 -200t196.5 -79q79 0 142 36.5t94 99.5l229 -131q-53 -96 -142.5 -162.5t-201.5 -91.5v-78 q60 -14 101.5 -54.5t41.5 -105.5q0 -214 -450 -188v186q221 -15 221 41q0 23 -32 34.5t-97 16.5v144q-197 32 -320.5 180t-123.5 352z" />
<glyph unicode="&#xe8;" horiz-adv-x="1189" d="M68 512q0 232 151 386.5t389 154.5q148 0 267.5 -72.5t185 -196t65.5 -272.5q0 -51 -10 -109h-772q27 -97 103.5 -144.5t185.5 -47.5q74 0 134 28t95 74l213 -123q-73 -106 -186.5 -162.5t-259.5 -56.5q-126 0 -232 41.5t-178 114.5t-111.5 172t-39.5 213zM283 1442h317 l164 -281h-254zM340 608h522q-23 104 -93.5 155.5t-160.5 51.5q-105 0 -175 -54t-93 -153z" />
<glyph unicode="&#xe9;" horiz-adv-x="1189" d="M68 512q0 232 151 386.5t389 154.5q148 0 267.5 -72.5t185 -196t65.5 -272.5q0 -51 -10 -109h-772q27 -97 103.5 -144.5t185.5 -47.5q74 0 134 28t95 74l213 -123q-73 -106 -186.5 -162.5t-259.5 -56.5q-126 0 -232 41.5t-178 114.5t-111.5 172t-39.5 213zM340 608h522 q-23 104 -93.5 155.5t-160.5 51.5q-105 0 -175 -54t-93 -153zM432 1161l164 281h317l-227 -281h-254z" />
<glyph unicode="&#xea;" horiz-adv-x="1189" d="M68 512q0 232 151 386.5t389 154.5q148 0 267.5 -72.5t185 -196t65.5 -272.5q0 -51 -10 -109h-772q27 -97 103.5 -144.5t185.5 -47.5q74 0 134 28t95 74l213 -123q-73 -106 -186.5 -162.5t-259.5 -56.5q-126 0 -232 41.5t-178 114.5t-111.5 172t-39.5 213zM238 1145 l217 297h268l217 -297h-262l-88 133l-90 -133h-262zM340 608h522q-23 104 -93.5 155.5t-160.5 51.5q-105 0 -175 -54t-93 -153z" />
<glyph unicode="&#xeb;" horiz-adv-x="1189" d="M68 512q0 232 151 386.5t389 154.5q148 0 267.5 -72.5t185 -196t65.5 -272.5q0 -51 -10 -109h-772q27 -97 103.5 -144.5t185.5 -47.5q74 0 134 28t95 74l213 -123q-73 -106 -186.5 -162.5t-259.5 -56.5q-126 0 -232 41.5t-178 114.5t-111.5 172t-39.5 213zM262 1270 q0 57 41 98t98 41t97.5 -41t40.5 -98t-40.5 -97t-97.5 -40t-98 40t-41 97zM340 608h522q-23 104 -93.5 155.5t-160.5 51.5q-105 0 -175 -54t-93 -153zM651 1270q0 57 41.5 98t98.5 41t97 -41t40 -98t-40 -97t-97 -40t-98.5 40t-41.5 97z" />
<glyph unicode="&#xec;" horiz-adv-x="505" d="M-14 1434l137 -297h254l-88 297h-303zM121 0v1024h264v-1024h-264z" />
<glyph unicode="&#xed;" horiz-adv-x="505" d="M121 0v1024h264v-1024h-264zM123 1137h254l135 297h-303z" />
<glyph unicode="&#xee;" horiz-adv-x="505" d="M-74 1137l193 297h268l191 -297h-261l-63 110l-66 -110h-262zM121 0v1024h264v-1024h-264z" />
<glyph unicode="&#xef;" horiz-adv-x="505" d="M-59 1270q0 57 40 98t97 41t98 -41t41 -98t-41 -97t-98 -40t-97 40t-40 97zM121 0v1024h264v-1024h-264zM289 1270q0 57 40 98t97 41t98 -41t41 -98t-41 -97t-98 -40t-97 40t-40 97z" />
<glyph unicode="&#xf0;" horiz-adv-x="1169" d="M68 471q0 133 66.5 242.5t181.5 169t249 49.5l-119 164l-260 -129v184l162 80l-147 203h305l67 -91l242 119v-184l-141 -70l336 -450q94 -130 94 -287q0 -150 -73 -265t-189.5 -173t-255.5 -58t-255.5 58t-189.5 173t-73 265zM332 471q0 -114 71.5 -181t182.5 -67 q110 0 182 67t72 181q0 83 -43 143q-76 97 -211 97q-112 0 -183 -65.5t-71 -174.5z" />
<glyph unicode="&#xf1;" horiz-adv-x="1181" d="M121 0v1024h264v-115q46 69 124.5 106.5t180.5 37.5q169 0 278 -113t109 -311v-629h-264v596q0 102 -55.5 156.5t-147.5 54.5q-102 0 -163.5 -63t-61.5 -191v-553h-264zM262 1163q0 95 22 161.5t58.5 99.5t85 42t101 -6t106.5 -49q60 -41 83 -33t23 82h215 q0 -95 -22 -161.5t-59 -99.5t-85 -42t-100.5 6t-105.5 49q-60 41 -84.5 33t-24.5 -82h-213z" />
<glyph unicode="&#xf2;" horiz-adv-x="1216" d="M68 512q0 150 72 274.5t196 195.5t272 71q149 0 273.5 -71t197 -195.5t72.5 -274.5t-72.5 -274.5t-197 -195.5t-273.5 -71q-148 0 -272 71t-196 195.5t-72 274.5zM295 1450l227 -281h254l-164 281h-317zM332 512q0 -123 79 -203t197 -80q120 0 199.5 79.5t79.5 203.5 t-79.5 203.5t-199.5 79.5q-118 0 -197 -80t-79 -203z" />
<glyph unicode="&#xf3;" horiz-adv-x="1216" d="M68 512q0 150 72 274.5t196 195.5t272 71q149 0 273.5 -71t197 -195.5t72.5 -274.5t-72.5 -274.5t-197 -195.5t-273.5 -71q-148 0 -272 71t-196 195.5t-72 274.5zM332 512q0 -123 79 -203t197 -80q120 0 199.5 79.5t79.5 203.5t-79.5 203.5t-199.5 79.5q-118 0 -197 -80 t-79 -203zM444 1169h254l228 281h-318z" />
<glyph unicode="&#xf4;" horiz-adv-x="1216" d="M68 512q0 150 72 274.5t196 195.5t272 71q149 0 273.5 -71t197 -195.5t72.5 -274.5t-72.5 -274.5t-197 -195.5t-273.5 -71q-148 0 -272 71t-196 195.5t-72 274.5zM250 1153l217 297h268l217 -297h-262l-88 133l-90 -133h-262zM332 512q0 -123 79 -203t197 -80 q120 0 199.5 79.5t79.5 203.5t-79.5 203.5t-199.5 79.5q-118 0 -197 -80t-79 -203z" />
<glyph unicode="&#xf5;" horiz-adv-x="1216" d="M68 512q0 150 72 274.5t196 195.5t272 71q149 0 273.5 -71t197 -195.5t72.5 -274.5t-72.5 -274.5t-197 -195.5t-273.5 -71q-148 0 -272 71t-196 195.5t-72 274.5zM260 1163q0 95 22 161.5t58.5 99.5t85 42t101 -6t106.5 -49q60 -41 83 -33t23 82h215q0 -95 -22 -161.5 t-59 -99.5t-85 -42t-100.5 6t-105.5 49q-60 41 -84.5 33t-24.5 -82h-213zM332 512q0 -123 79 -203t197 -80q120 0 199.5 79.5t79.5 203.5t-79.5 203.5t-199.5 79.5q-118 0 -197 -80t-79 -203z" />
<glyph unicode="&#xf6;" horiz-adv-x="1216" d="M68 512q0 150 72 274.5t196 195.5t272 71q149 0 273.5 -71t197 -195.5t72.5 -274.5t-72.5 -274.5t-197 -195.5t-273.5 -71q-148 0 -272 71t-196 195.5t-72 274.5zM274 1278q0 57 41.5 98t98.5 41t97 -41t40 -98t-40 -97t-97 -40t-98.5 40t-41.5 97zM332 512 q0 -123 79 -203t197 -80q120 0 199.5 79.5t79.5 203.5t-79.5 203.5t-199.5 79.5q-118 0 -197 -80t-79 -203zM664 1278q0 57 41 98t98 41t97 -41t40 -98t-40 -97t-97 -40t-98 40t-41 97z" />
<glyph unicode="&#xf7;" horiz-adv-x="1157" d="M92 594v248h973v-248h-973zM412 319q0 70 48.5 118t119.5 48q70 0 117.5 -47.5t47.5 -118.5t-47.5 -119t-117.5 -48q-71 0 -119.5 48.5t-48.5 118.5zM412 1116q0 70 48.5 118t119.5 48q70 0 117.5 -47.5t47.5 -118.5t-47.5 -119.5t-117.5 -48.5t-119 49t-49 119z" />
<glyph unicode="&#xf8;" horiz-adv-x="1216" d="M68 512q0 150 72 274.5t196 195.5t272 71q161 0 299 -88l66 77l112 -65l-79 -94q145 -155 145 -371q0 -150 -72.5 -274.5t-197 -195.5t-273.5 -71q-166 0 -297 86l-65 -75l-113 65l80 94q-69 72 -107 168t-38 203zM332 512q0 -97 51 -170l356 422q-60 31 -131 31 q-118 0 -197 -80t-79 -203zM479 260q60 -31 129 -31q120 0 199.5 79.5t79.5 203.5q0 98 -51 168z" />
<glyph unicode="&#xf9;" horiz-adv-x="1181" d="M104 395v629h265v-596q0 -102 55 -156.5t147 -54.5q102 0 164 63t62 191v553h264v-1024h-264v115q-46 -69 -124.5 -106.5t-180.5 -37.5q-169 0 -278.5 113t-109.5 311zM268 1434h318l164 -281h-254z" />
<glyph unicode="&#xfa;" horiz-adv-x="1181" d="M104 395v629h265v-596q0 -102 55 -156.5t147 -54.5q102 0 164 63t62 191v553h264v-1024h-264v115q-46 -69 -124.5 -106.5t-180.5 -37.5q-169 0 -278.5 113t-109.5 311zM418 1153l164 281h317l-227 -281h-254z" />
<glyph unicode="&#xfb;" horiz-adv-x="1181" d="M104 395v629h265v-596q0 -102 55 -156.5t147 -54.5q102 0 164 63t62 191v553h264v-1024h-264v115q-46 -69 -124.5 -106.5t-180.5 -37.5q-169 0 -278.5 113t-109.5 311zM223 1137l217 297h269l217 -297h-262l-89 133l-90 -133h-262z" />
<glyph unicode="&#xfc;" horiz-adv-x="1181" d="M104 395v629h265v-596q0 -102 55 -156.5t147 -54.5q102 0 164 63t62 191v553h264v-1024h-264v115q-46 -69 -124.5 -106.5t-180.5 -37.5q-169 0 -278.5 113t-109.5 311zM248 1262q0 57 41 98t98 41t97 -41t40 -98t-40 -97.5t-97 -40.5t-98 40.5t-41 97.5zM637 1262 q0 57 41 98t98 41t97 -41t40 -98t-40 -97.5t-97 -40.5t-98 40.5t-41 97.5z" />
<glyph unicode="&#xfd;" horiz-adv-x="1075" d="M6 1024h289l266 -688l227 688h283l-373 -1024q-79 -220 -211.5 -320.5t-328.5 -89.5v246q107 -1 169 45.5t99 151.5zM375 1153l164 281h317l-227 -281h-254z" />
<glyph unicode="&#xfe;" d="M121 -410v1844h264v-531q118 150 332 150q135 0 250 -71t182.5 -195.5t67.5 -274.5t-67.5 -274.5t-182.5 -195.5t-250 -71q-214 0 -332 150v-531h-264zM385 512q0 -128 80 -208.5t203 -80.5q124 0 204 80.5t80 208.5t-80 208.5t-204 80.5q-123 0 -203 -80.5t-80 -208.5z " />
<glyph unicode="&#xff;" horiz-adv-x="1075" d="M6 1024h289l266 -688l227 688h283l-373 -1024q-79 -220 -211.5 -320.5t-328.5 -89.5v246q107 -1 169 45.5t99 151.5zM205 1262q0 57 41 98t98 41t97 -41t40 -98t-40 -97.5t-97 -40.5t-98 40.5t-41 97.5zM594 1262q0 57 41 98t98 41t97 -41t40 -98t-40 -97.5t-97 -40.5 t-98 40.5t-41 97.5z" />
<glyph unicode="&#x152;" horiz-adv-x="1875" d="M68 717q0 155 55 293t150.5 237.5t230 157t287.5 57.5q106 0 204 -28h803v-271h-522v-305h477v-266h-477v-322h532v-270h-813q-101 -29 -204 -29q-203 0 -369.5 99t-260 269.5t-93.5 377.5zM348 717q0 -206 124 -337.5t319 -131.5q122 0 204 31v878q-95 31 -204 31 q-195 0 -319 -132t-124 -339z" />
<glyph unicode="&#x153;" horiz-adv-x="2009" d="M68 512q0 150 69.5 274.5t191.5 195.5t271 71q135 0 243.5 -61t172.5 -167q63 107 171.5 167.5t252.5 60.5q222 0 364 -156t142 -385q0 -45 -11 -109h-772q29 -98 105.5 -145t175.5 -47q159 0 237 102l213 -123q-73 -106 -186.5 -162.5t-259.5 -56.5q-147 0 -256.5 61 t-173.5 169q-66 -107 -174 -168.5t-244 -61.5q-149 0 -271 71t-191.5 195.5t-69.5 274.5zM332 512q0 -124 78 -203.5t198 -79.5t199.5 79.5t79.5 203.5t-79.5 203.5t-199.5 79.5t-198 -79.5t-78 -203.5zM1159 610h522q-22 104 -91 154.5t-160 50.5q-104 0 -175 -54t-96 -151 z" />
<glyph unicode="&#x178;" horiz-adv-x="1271" d="M6 1434h320l311 -598l311 598h320l-492 -875v-559h-280v559zM301 1671q0 57 41 98t98 41t97.5 -41t40.5 -98t-40.5 -97t-97.5 -40t-98 40t-41 97zM690 1671q0 57 41 98t98 41t97.5 -41t40.5 -98t-40.5 -97t-97.5 -40t-98 40t-41 97z" />
<glyph unicode="&#x2c6;" horiz-adv-x="784" d="M41 1137l217 297h268l217 -297h-262l-88 133l-90 -133h-262z" />
<glyph unicode="&#x2dc;" horiz-adv-x="776" d="M43 1147q0 95 22 161.5t58.5 99.5t85 42t101 -6t106.5 -49q60 -41 83 -33t23 82h215q0 -95 -22 -161.5t-59 -99.5t-85 -42t-100.5 6t-105.5 49q-60 41 -84.5 33t-24.5 -82h-213z" />
<glyph unicode="&#x2000;" horiz-adv-x="939" />
<glyph unicode="&#x2001;" horiz-adv-x="1879" />
<glyph unicode="&#x2002;" horiz-adv-x="939" />
<glyph unicode="&#x2003;" horiz-adv-x="1879" />
<glyph unicode="&#x2004;" horiz-adv-x="626" />
<glyph unicode="&#x2005;" horiz-adv-x="469" />
<glyph unicode="&#x2006;" horiz-adv-x="313" />
<glyph unicode="&#x2007;" horiz-adv-x="313" />
<glyph unicode="&#x2008;" horiz-adv-x="234" />
<glyph unicode="&#x2009;" horiz-adv-x="375" />
<glyph unicode="&#x200a;" horiz-adv-x="104" />
<glyph unicode="&#x2010;" horiz-adv-x="1034" d="M133 492v253h768v-253h-768z" />
<glyph unicode="&#x2011;" horiz-adv-x="1034" d="M133 492v253h768v-253h-768z" />
<glyph unicode="&#x2012;" horiz-adv-x="1034" d="M133 492v253h768v-253h-768z" />
<glyph unicode="&#x2013;" horiz-adv-x="1320" d="M133 492v253h1055v-253h-1055z" />
<glyph unicode="&#x2014;" horiz-adv-x="1525" d="M133 492v253h1260v-253h-1260z" />
<glyph unicode="&#x2018;" horiz-adv-x="569" d="M100 864l154 570h215l-82 -570h-287z" />
<glyph unicode="&#x2019;" horiz-adv-x="569" d="M100 866l82 570h287l-154 -570h-215z" />
<glyph unicode="&#x201a;" horiz-adv-x="569" d="M100 -287l82 570h287l-154 -570h-215z" />
<glyph unicode="&#x201c;" horiz-adv-x="948" d="M100 864l154 570h215l-82 -570h-287zM479 864l154 570h215l-82 -570h-287z" />
<glyph unicode="&#x201d;" horiz-adv-x="948" d="M100 866l82 570h287l-154 -570h-215zM479 866l82 570h287l-154 -570h-215z" />
<glyph unicode="&#x201e;" horiz-adv-x="948" d="M100 -287l82 570h287l-154 -570h-215zM479 -287l82 570h287l-154 -570h-215z" />
<glyph unicode="&#x2022;" horiz-adv-x="737" d="M88 721q0 116 83.5 197t201.5 81q115 0 196.5 -81.5t81.5 -196.5q0 -118 -81 -201.5t-197 -83.5q-119 0 -202 83t-83 202z" />
<glyph unicode="&#x2026;" horiz-adv-x="1480" d="M100 147q0 72 51 123.5t123 51.5t123.5 -51.5t51.5 -123.5t-51.5 -123t-123.5 -51t-123 51t-51 123zM567 147q0 72 51 123.5t123 51.5t123 -51.5t51 -123.5t-51 -123t-123 -51t-123 51t-51 123zM1032 147q0 72 51 123.5t123 51.5t123 -51.5t51 -123.5t-51 -123t-123 -51 t-123 51t-51 123z" />
<glyph unicode="&#x202f;" horiz-adv-x="375" />
<glyph unicode="&#x2039;" horiz-adv-x="727" d="M129 633l225 385h244l-225 -385l225 -383h-244z" />
<glyph unicode="&#x203a;" horiz-adv-x="727" d="M129 250l225 383l-225 385h244l225 -385l-225 -383h-244z" />
<glyph unicode="&#x205f;" horiz-adv-x="469" />
<glyph unicode="&#x20ac;" horiz-adv-x="1251" d="M33 526v160h129v31v49h-129v158h145q44 251 189 394.5t370 143.5q156 0 274 -77t189 -222l-235 -135q-38 82 -93.5 121t-134.5 39q-214 0 -274 -264h420v-158h-441v-49v-31h441v-160h-424q57 -278 278 -278q82 0 139 41.5t97 128.5l233 -133q-68 -153 -188 -233.5 t-281 -80.5q-228 0 -374 149t-187 406h-143z" />
<glyph unicode="&#x2122;" horiz-adv-x="968" d="M68 1319v115h350v-115h-113v-295h-125v295h-112zM459 1024v410h119l104 -158l102 158h119v-410h-119v223l-98 -149h-10l-98 149v-223h-119z" />
<glyph unicode="&#x25fc;" horiz-adv-x="1024" d="M0 0v1024h1024v-1024h-1024z" />
<glyph unicode="&#xfb03;" horiz-adv-x="1708" d="M43 770v254h147v10q0 217 121.5 330t360.5 98v-254q-107 8 -162 -32.5t-55 -141.5v-10h303v31q0 428 481 428q107 0 242 -29v-242q-150 17 -242 17q-109 0 -163 -37.5t-54 -136.5v-31h565v-1024h-264v770h-301v-770h-264v770h-303v-770h-265v770h-147z" />
<glyph unicode="&#xfb04;" horiz-adv-x="1708" d="M43 770v254h147v10q0 217 121.5 330t360.5 98v-254q-107 8 -162 -32.5t-55 -141.5v-10h303v31q0 428 481 428q140 0 348 -43v-1440h-264v1249q-29 2 -84 2q-217 0 -217 -196v-31h172v-254h-172v-770h-264v770h-303v-770h-265v770h-147z" />
</font>
</defs>
</svg>
