<?xml version="1.0" standalone="no"?>
<!DOCTYPE svg PUBLIC "-//W3C//DTD SVG 1.1//EN" "http://www.w3.org/Graphics/SVG/1.1/DTD/svg11.dtd" >
<svg xmlns="http://www.w3.org/2000/svg" xmlns:xlink="http://www.w3.org/1999/xlink" version="1.1">
<metadata></metadata>
<defs>
<font id="gilroylight" horiz-adv-x="1320" >
<font-face units-per-em="2048" ascent="1638" descent="-410" />
<missing-glyph horiz-adv-x="546" />
<glyph unicode="&#xfb01;" horiz-adv-x="1044" d="M55 924v100h176v55q0 188 104 282.5t306 94.5q92 0 199 -22v-95q-108 19 -199 19q-158 0 -231.5 -65.5t-73.5 -213.5v-55h553v-1024h-105v924h-448v-924h-105v924h-176z" />
<glyph unicode="&#xfb02;" horiz-adv-x="1044" d="M55 924v100h176v55q0 188 104 282.5t306 94.5q113 0 248 -22v-1434h-105v1354q-63 8 -143 8q-158 0 -231.5 -67.5t-73.5 -215.5v-55h244v-100h-244v-924h-105v924h-176z" />
<glyph horiz-adv-x="0" />
<glyph horiz-adv-x="682" />
<glyph unicode=" "  horiz-adv-x="546" />
<glyph unicode="&#x09;" horiz-adv-x="546" />
<glyph unicode="&#xa0;" horiz-adv-x="546" />
<glyph unicode="!" horiz-adv-x="450" d="M133 72q0 38 27 65t65 27t65 -27t27 -65t-27 -65t-65 -27t-65 27t-27 65zM164 1024v410h123v-410l-21 -655h-82z" />
<glyph unicode="&#x22;" horiz-adv-x="600" d="M109 1434h110l-14 -383h-82zM383 1434h109l-15 -383h-82z" />
<glyph unicode="#" horiz-adv-x="1234" d="M76 485l14 95h246l45 274h-246l15 94h247l64 383h102l-63 -383h315l64 383h102l-63 -383h243l-16 -94h-244l-45 -274h246l-17 -95h-245l-64 -383h-102l63 383h-315l-64 -383h-102l63 383h-243zM438 580h316l45 274h-316z" />
<glyph unicode="$" horiz-adv-x="1126" d="M88 268l94 54q36 -108 129 -170.5t234 -69.5v608q-53 19 -88 32.5t-80 35t-73.5 41.5t-59.5 50t-48 62.5t-28.5 76.5t-11.5 95q0 156 111 258t278 113v184h96v-184q125 -14 221 -80t142 -178l-93 -51q-72 179 -270 203v-582q75 -27 123 -47t105.5 -55t90.5 -73 t55.5 -95.5t22.5 -128.5q0 -159 -110 -264.5t-287 -122.5v-185h-96v182q-170 8 -290 84t-167 207zM264 1083q0 -47 14.5 -86t37 -66t61 -52t76 -41.5t92.5 -36.5v549q-125 -10 -203 -84.5t-78 -182.5zM641 86q135 15 211 91.5t76 189.5q0 60 -20 105.5t-61.5 79.5t-88.5 57 t-117 48v-571z" />
<glyph unicode="%" horiz-adv-x="1466" d="M129 1151q0 128 89.5 216.5t223.5 88.5t224 -88.5t90 -216.5q0 -129 -89 -217t-225 -88q-134 0 -223.5 88.5t-89.5 216.5zM207 184l973 1094l69 -39l-975 -1094zM231 1151q0 -90 59.5 -150.5t151.5 -60.5q93 0 153 60.5t60 150.5t-60 150.5t-153 60.5q-92 0 -151.5 -60.5 t-59.5 -150.5zM709 283q0 128 89.5 216.5t223.5 88.5t223.5 -88.5t89.5 -216.5q0 -129 -89.5 -217.5t-223.5 -88.5t-223.5 88.5t-89.5 217.5zM811 283q0 -90 59.5 -150.5t151.5 -60.5q93 0 153 60.5t60 150.5t-60 150.5t-153 60.5q-92 0 -151.5 -60.5t-59.5 -150.5z" />
<glyph unicode="&#x26;" horiz-adv-x="1341" d="M129 381q0 136 74 246.5t211 171.5q-55 64 -85 130t-30 150q0 114 57.5 201.5t149 131.5t199.5 44q137 0 245.5 -72t153.5 -198l-90 -53q-32 101 -115 160t-192 59q-128 0 -212.5 -75.5t-84.5 -193.5q0 -80 38.5 -144t116.5 -144l449 -469q66 122 86 284l96 -55 q-28 -177 -106 -309l196 -207l-96 -55l-166 174q-157 -181 -428 -181q-213 0 -340 109.5t-127 294.5zM240 383q0 -140 95 -220.5t257 -80.5q222 0 358 154l-461 483q-127 -48 -188 -138.5t-61 -197.5z" />
<glyph unicode="'" horiz-adv-x="321" d="M109 1434h110l-14 -383h-82z" />
<glyph unicode="(" horiz-adv-x="534" d="M123 717q0 469 225 921h105q-226 -454 -226 -921q0 -468 226 -922h-105q-225 452 -225 922z" />
<glyph unicode=")" horiz-adv-x="534" d="M82 -205q225 452 225 922q0 469 -225 921h104q226 -454 226 -921q0 -468 -226 -922h-104z" />
<glyph unicode="*" horiz-adv-x="792" d="M129 1163v88l195 -4l-109 162l82 47l98 -170l101 170l79 -47l-108 -162l195 4v-88l-195 4l108 -161l-79 -48l-101 172l-98 -172l-82 48l109 161z" />
<glyph unicode="+" horiz-adv-x="1091" d="M129 668v98h367v367h100v-367h367v-98h-367v-367h-100v367h-367z" />
<glyph unicode="," horiz-adv-x="456" d="M127 -287l78 426h127l-111 -426h-94z" />
<glyph unicode="-" horiz-adv-x="1091" d="M178 584v98h737v-98h-737z" />
<glyph unicode="." horiz-adv-x="436" d="M127 72q0 39 26.5 65.5t65.5 26.5q38 0 65 -27t27 -65t-27 -65t-65 -27q-39 0 -65.5 26.5t-26.5 65.5z" />
<glyph unicode="/" horiz-adv-x="1079" d="M88 -205l819 1843h82l-819 -1843h-82z" />
<glyph unicode="0" horiz-adv-x="1290" d="M109 717q0 222 61.5 387.5t183.5 258.5t291 93t291 -93t184 -258.5t62 -387.5t-62 -388t-184 -259t-291 -93t-291 93t-183.5 259t-61.5 388zM219 717q0 -300 113 -467.5t313 -167.5t313 167.5t113 467.5t-113 467.5t-313 167.5t-313 -167.5t-113 -467.5z" />
<glyph unicode="1" horiz-adv-x="679" d="M35 1305l375 129h92v-1434h-109v1315l-332 -105z" />
<glyph unicode="2" horiz-adv-x="1079" d="M88 0v98l526 541q110 113 171 210.5t61 194.5q0 143 -90 225.5t-226 82.5q-239 0 -342 -217l-92 55q63 130 177.5 198t256.5 68q112 0 207.5 -46.5t157 -142t61.5 -223.5q0 -123 -71 -239t-197 -244l-444 -457h745v-104h-901z" />
<glyph unicode="3" horiz-adv-x="1103" d="M78 250l90 53q40 -107 135.5 -164t231.5 -57q160 0 262 90t102 242t-103 241.5t-266 89.5v3l-2 -3h-28l-47 72l362 514h-700v103h825v-103l-346 -493q180 -18 297 -129.5t117 -294.5q0 -101 -38 -184.5t-103 -138t-150.5 -84.5t-181.5 -30q-160 0 -282.5 71.5 t-174.5 201.5z" />
<glyph unicode="4" horiz-adv-x="1173" d="M57 301v102l545 1031h119l-543 -1031h651v451h109v-451h184v-102h-184v-301h-109v301h-772z" />
<glyph unicode="5" horiz-adv-x="1107" d="M92 266l92 53q35 -114 131 -175.5t230 -61.5q163 0 265.5 89.5t102.5 242.5t-102.5 242t-265.5 89h-383l49 689h758v-103h-662l-33 -481h271q131 0 238 -50.5t173 -151t66 -234.5t-66 -235t-173 -151.5t-238 -50.5q-158 0 -281.5 75.5t-171.5 213.5z" />
<glyph unicode="6" horiz-adv-x="1099" d="M68 449q0 161 88 286l481 699h123l-367 -535q80 23 156 23q210 0 345.5 -131.5t135.5 -341.5q0 -208 -135.5 -340t-345.5 -132t-345.5 132t-135.5 340zM178 449q0 -162 101.5 -264.5t269.5 -102.5t270.5 102.5t102.5 264.5q0 163 -102 265.5t-271 102.5 q-168 0 -269.5 -102.5t-101.5 -265.5z" />
<glyph unicode="7" horiz-adv-x="1003" d="M47 1331v103h868v-103l-557 -1331h-112l557 1331h-756z" />
<glyph unicode="8" horiz-adv-x="1126" d="M88 383q0 124 69 217.5t187 140.5q-96 47 -152.5 132.5t-56.5 195.5q0 122 61 212t156.5 132.5t210.5 42.5t210.5 -42.5t156.5 -132.5t61 -212q0 -110 -56.5 -195.5t-152.5 -132.5q118 -47 187 -140.5t69 -217.5q0 -127 -63.5 -220t-170 -139.5t-241.5 -46.5t-241.5 46.5 t-170 139.5t-63.5 220zM199 383q0 -141 98 -221t266 -80q169 0 267 80t98 221q0 140 -98.5 219.5t-266.5 79.5t-266 -79.5t-98 -219.5zM244 1069q0 -129 90 -205t229 -76t229.5 76t90.5 205q0 134 -90 208.5t-230 74.5t-229.5 -74.5t-89.5 -208.5z" />
<glyph unicode="9" horiz-adv-x="1099" d="M68 985q0 208 135.5 339.5t345.5 131.5t345.5 -131.5t135.5 -339.5q0 -162 -88 -287l-479 -698h-123l367 535q-81 -23 -158 -23q-210 0 -345.5 131.5t-135.5 341.5zM178 985q0 -163 101.5 -266t269.5 -103q169 0 271 103t102 266q0 162 -102.5 264.5t-270.5 102.5 t-269.5 -102.5t-101.5 -264.5z" />
<glyph unicode=":" horiz-adv-x="436" d="M127 72q0 39 26.5 65.5t65.5 26.5q38 0 65 -27t27 -65t-27 -65t-65 -27q-39 0 -65.5 26.5t-26.5 65.5zM127 932q0 39 26.5 65.5t65.5 26.5q38 0 65 -27t27 -65t-27 -65t-65 -27q-39 0 -65.5 26.5t-26.5 65.5z" />
<glyph unicode=";" horiz-adv-x="471" d="M127 -287l78 426h127l-111 -426h-94zM162 932q0 39 26.5 65.5t65.5 26.5q38 0 65 -27t27 -65t-27 -65t-65 -27q-39 0 -65.5 26.5t-26.5 65.5z" />
<glyph unicode="&#x3c;" horiz-adv-x="1079" d="M131 664v106l819 365v-115l-702 -303l702 -303v-115z" />
<glyph unicode="=" horiz-adv-x="1099" d="M129 463v98h840v-98h-840zM129 872v99h840v-99h-840z" />
<glyph unicode="&#x3e;" horiz-adv-x="1079" d="M129 299v115l702 303l-702 303v115l819 -365v-106z" />
<glyph unicode="?" horiz-adv-x="1085" d="M109 1186q46 130 162.5 200t263.5 70q181 0 301 -97.5t120 -271.5q0 -63 -22 -120.5t-57 -103t-77 -89.5t-84.5 -88.5t-77.5 -90.5t-57 -104.5t-22 -121.5h-108q0 73 22 138.5t56.5 114.5t77 94.5t84.5 87.5t76.5 84t56.5 93t22 106q0 127 -84.5 196t-226.5 69 q-123 0 -212 -56t-122 -161zM414 72q0 39 26.5 65.5t65.5 26.5q38 0 65 -27t27 -65t-27 -65t-65 -27q-39 0 -65.5 26.5t-26.5 65.5z" />
<glyph unicode="@" horiz-adv-x="1652" d="M96 512q0 152 57 288.5t155.5 236t237.5 158t296 58.5q133 0 249.5 -40t201 -109t145.5 -158.5t91 -190t30 -202.5q0 -112 -25 -198t-67.5 -134.5t-91.5 -72t-103 -23.5q-87 0 -144.5 49t-70.5 139q-41 -60 -104.5 -94.5t-141.5 -34.5q-142 0 -237 94.5t-95 233.5 t95 233.5t237 94.5q76 0 139 -32.5t103 -90.5v108h98v-456q0 -83 32.5 -135t102.5 -52q95 0 156 93.5t61 277.5q0 136 -51 256.5t-139 206.5t-210.5 136t-260.5 50q-142 0 -269.5 -53t-220.5 -144t-147.5 -219.5t-54.5 -273.5q0 -147 55 -275.5t151.5 -219.5t232 -143 t290.5 -52q207 0 350 57l6 -53q-151 -55 -356 -55q-165 0 -310 56t-249 153t-164 235t-60 297zM578 512q0 -102 68.5 -167.5t168.5 -65.5t169 65.5t69 167.5t-69 167.5t-169 65.5t-168.5 -65.5t-68.5 -167.5z" />
<glyph unicode="A" horiz-adv-x="1288" d="M31 0l557 1434h114l555 -1434h-114l-139 365h-719l-140 -365h-114zM326 467h639l-320 833z" />
<glyph unicode="B" horiz-adv-x="1275" d="M178 0v1434h572q156 0 266 -110.5t110 -266.5q0 -103 -49.5 -186t-134.5 -128q110 -42 178 -137t68 -215q0 -163 -114 -277t-277 -114h-619zM287 102h510q117 0 199.5 84.5t82.5 204.5t-82.5 204.5t-199.5 84.5h-510v-578zM287 782h463q110 0 189 80.5t79 194.5 t-78.5 194t-189.5 80h-463v-549z" />
<glyph unicode="C" horiz-adv-x="1538" d="M96 717q0 152 56 288t153 235.5t237 157.5t300 58q196 0 360 -93t254 -251l-96 -55q-71 133 -211 214t-307 81q-138 0 -258 -50t-202.5 -135.5t-129.5 -202t-47 -247.5t47 -247.5t129.5 -202t202.5 -135.5t258 -50q169 0 310 82.5t212 218.5l96 -55q-89 -160 -254 -255.5 t-364 -95.5q-160 0 -300 58t-237 157.5t-153 236t-56 288.5z" />
<glyph unicode="D" horiz-adv-x="1488" d="M178 0v1434h539q145 0 271.5 -56.5t215 -153.5t139 -228.5t50.5 -278.5t-50.5 -278.5t-139 -228.5t-215 -153.5t-271.5 -56.5h-539zM287 102h430q165 0 296 83t202 223t71 309t-71 309t-202 222.5t-296 82.5h-430v-1229z" />
<glyph unicode="E" horiz-adv-x="1091" d="M178 0v1434h815v-103h-706v-557h655v-102h-655v-570h717v-102h-826z" />
<glyph unicode="F" horiz-adv-x="1060" d="M178 0v1434h795v-103h-686v-573h661v-103h-661v-655h-109z" />
<glyph unicode="G" horiz-adv-x="1636" d="M96 717q0 152 56 288t153 235.5t237 157.5t300 58q197 0 361 -94t255 -252l-96 -57q-71 136 -211.5 217.5t-308.5 81.5q-138 0 -258 -50t-202.5 -135.5t-129.5 -202t-47 -247.5q0 -176 80 -320t228.5 -229.5t336.5 -85.5q127 0 234 37.5t179.5 103.5t116 153.5 t52.5 188.5h-609v103h719v-56q0 -130 -48.5 -245.5t-136 -202t-219 -137t-288.5 -50.5q-217 0 -390.5 99.5t-268.5 268t-95 372.5z" />
<glyph unicode="H" horiz-adv-x="1406" d="M178 0v1434h109v-646h833v646h109v-1434h-109v686h-833v-686h-109z" />
<glyph unicode="I" horiz-adv-x="464" d="M178 0v1434h109v-1434h-109z" />
<glyph unicode="J" horiz-adv-x="1132" d="M88 217l92 55q37 -95 124.5 -142.5t211.5 -47.5q161 0 255.5 80.5t94.5 230.5v1041h111v-1041q0 -133 -63 -228.5t-165.5 -141.5t-232.5 -46q-151 0 -263.5 61.5t-164.5 178.5z" />
<glyph unicode="K" horiz-adv-x="1171" d="M178 0v1434h109v-668l698 668h145l-724 -697l745 -737h-145l-719 707v-707h-109z" />
<glyph unicode="L" horiz-adv-x="1009" d="M178 0v1434h109v-1332h676v-102h-785z" />
<glyph unicode="M" horiz-adv-x="1652" d="M178 0v1434h135l512 -848l512 848h138v-1434h-109v1274l-530 -881h-19l-530 881v-1274h-109z" />
<glyph unicode="N" horiz-adv-x="1406" d="M178 0v1434h94l848 -1233v1233h109v-1434h-96l-846 1233v-1233h-109z" />
<glyph unicode="O" horiz-adv-x="1671" d="M96 717q0 151 58 288t156.5 236t236 157t289.5 58q122 0 235.5 -37t204 -105.5t158.5 -159t104.5 -203.5t36.5 -234q0 -202 -97.5 -372t-268 -269t-373.5 -99t-373.5 99t-268.5 269t-98 372zM205 717q0 -174 83 -319.5t228.5 -230.5t319.5 -85t319 85t228 230.5t83 319.5 t-83 319.5t-228 230.5t-319 85t-319.5 -85t-228.5 -230.5t-83 -319.5z" />
<glyph unicode="P" horiz-adv-x="1202" d="M178 0v1434h488q193 0 319.5 -127t126.5 -318q0 -190 -126.5 -316t-319.5 -126h-379v-547h-109zM287 649h379q148 0 243 96t95 244q0 149 -95 245.5t-243 96.5h-379v-682z" />
<glyph unicode="Q" horiz-adv-x="1681" d="M96 717q0 202 99 372t269 268.5t372 98.5q151 0 288 -58.5t235.5 -157t157 -235.5t58.5 -288q0 -154 -59.5 -292t-165.5 -241l168 -166l-74 -67l-172 168q-195 -142 -436 -142q-202 0 -372 99t-269 269t-99 372zM205 717q0 -130 50 -247.5t134 -202.5t201 -135t246 -50 q200 0 360 113l-317 313l73 67l322 -317q91 89 141.5 207.5t50.5 251.5q0 130 -49.5 247.5t-134 202.5t-201 135t-245.5 50t-246 -50t-201 -135t-134 -202.5t-50 -247.5z" />
<glyph unicode="R" horiz-adv-x="1255" d="M178 0v1434h565q175 0 299.5 -124.5t124.5 -299.5q0 -145 -88.5 -258t-226.5 -150l356 -602h-125l-344 588h-452v-588h-109zM287 690h456q130 0 223 94t93 226q0 133 -92.5 227t-223.5 94h-456v-641z" />
<glyph unicode="S" horiz-adv-x="1175" d="M92 315l94 56q38 -134 148 -211.5t282 -77.5q174 0 267.5 79.5t93.5 207.5q0 50 -18.5 91.5t-48 70.5t-80.5 56.5t-100 46t-124 42.5q-190 62 -264 101q-148 79 -180 208q-10 40 -10 86q0 174 123.5 279.5t310.5 105.5q168 0 286.5 -83.5t174.5 -217.5l-93 -51 q-45 109 -135 178.5t-233 69.5q-147 0 -235.5 -77.5t-88.5 -199.5q0 -36 9.5 -67t23.5 -54.5t41 -45t51.5 -36.5t66.5 -32.5t73.5 -28.5t84.5 -29q67 -22 107 -36.5t97 -38t90.5 -44.5t72.5 -52.5t59.5 -64.5t34.5 -78t14 -97q0 -179 -128.5 -286.5t-342.5 -107.5 q-198 0 -336 91.5t-188 246.5z" />
<glyph unicode="T" horiz-adv-x="1105" d="M47 1331v103h1012v-103h-451v-1331h-110v1331h-451z" />
<glyph unicode="U" horiz-adv-x="1366" d="M158 479v955h108v-955q0 -179 109 -288t307 -109q199 0 308.5 109t109.5 288v955h108v-955q0 -227 -144.5 -364.5t-381.5 -137.5q-236 0 -380 137.5t-144 364.5z" />
<glyph unicode="V" horiz-adv-x="1239" d="M27 1434h118l473 -1293l476 1293h116l-534 -1434h-115z" />
<glyph unicode="W" horiz-adv-x="2033" d="M68 1434h114l371 -1289l399 1289h129l402 -1289l368 1289h115l-416 -1434h-131l-401 1292l-404 -1292h-131z" />
<glyph unicode="X" horiz-adv-x="1173" d="M47 0l477 737l-450 697h125l389 -600l387 600h125l-451 -697l477 -737h-125l-413 639l-414 -639h-127z" />
<glyph unicode="Y" horiz-adv-x="1193" d="M20 1434h123l455 -740l453 740h123l-523 -844v-590h-108v590z" />
<glyph unicode="Z" horiz-adv-x="1071" d="M88 0v102l774 1229h-753v103h874v-103l-774 -1229h795v-102h-916z" />
<glyph unicode="[" horiz-adv-x="567" d="M129 -205v1843h397v-100h-293v-1642h293v-101h-397z" />
<glyph unicode="\" horiz-adv-x="1079" d="M88 1638h82l819 -1843h-82z" />
<glyph unicode="]" horiz-adv-x="567" d="M41 -104h293v1642h-293v100h397v-1843h-397v101z" />
<glyph unicode="^" horiz-adv-x="1028" d="M102 819l361 615h102l361 -615h-121l-291 498l-291 -498h-121z" />
<glyph unicode="_" horiz-adv-x="1038" d="M82 -174h874v-98h-874v98z" />
<glyph unicode="`" horiz-adv-x="368" d="M41 1427l188 -260h99l-164 260h-123z" />
<glyph unicode="a" d="M88 512q0 149 71.5 272t193 193t265.5 70q145 0 260 -68t181 -186v231h104v-1024h-104v231q-66 -118 -181 -186t-260 -68q-144 0 -265.5 70t-193 193t-71.5 272zM193 512q0 -183 125.5 -309.5t308.5 -126.5t307.5 126.5t124.5 309.5t-124.5 309.5t-307.5 126.5 t-308.5 -126.5t-125.5 -309.5z" />
<glyph unicode="b" d="M158 0v1434h102v-648q64 121 179 191t261 70q145 0 266.5 -70t193 -193t71.5 -272t-71.5 -272t-193 -193t-266.5 -70q-146 0 -261 70t-179 191v-238h-102zM260 512q0 -183 125.5 -309.5t308.5 -126.5t308.5 126.5t125.5 309.5t-125.5 309.5t-308.5 126.5t-308.5 -126.5 t-125.5 -309.5z" />
<glyph unicode="c" horiz-adv-x="1148" d="M88 512q0 228 154 381.5t385 153.5q150 0 270 -71t176 -192l-84 -49q-45 97 -142.5 155t-219.5 58q-185 0 -309.5 -126t-124.5 -310t124.5 -310t309.5 -126q122 0 219 57.5t149 155.5l86 -51q-62 -120 -183.5 -190.5t-270.5 -70.5q-231 0 -385 153.5t-154 381.5z" />
<glyph unicode="d" d="M90 512q0 149 71.5 272t193 193t266.5 70q146 0 261 -70t179 -191v648h102v-1434h-102v238q-64 -121 -179 -191t-261 -70q-145 0 -266.5 70t-193 193t-71.5 272zM193 512q0 -183 125.5 -309.5t308.5 -126.5t308.5 126.5t125.5 309.5t-125.5 309.5t-308.5 126.5 t-308.5 -126.5t-125.5 -309.5z" />
<glyph unicode="e" horiz-adv-x="1206" d="M88 512q0 228 149 381.5t381 153.5q150 0 267.5 -76.5t178 -198.5t60.5 -264q0 -8 -1 -24.5t-1 -24.5h-927q19 -173 139 -278t295 -105q123 0 215.5 51t138.5 135l90 -53q-65 -107 -181 -169.5t-265 -62.5q-236 0 -387.5 151.5t-151.5 383.5zM195 559h823 q-17 181 -130 285t-270 104q-174 0 -291 -109t-132 -280z" />
<glyph unicode="f" horiz-adv-x="641" d="M55 924v100h176v55q0 192 106 292q92 87 254 87q24 0 50 -2v-98q-23 2 -44 2q-122 0 -186 -60q-75 -70 -75 -221v-55h305v-100h-305v-924h-105v924h-176z" />
<glyph unicode="g" horiz-adv-x="1327" d="M96 512q0 149 71.5 272t193 193t266.5 70q146 0 261 -70t179 -191v238h102v-975q0 -149 -69 -260t-183.5 -166t-257.5 -55q-176 0 -301 65.5t-182 180.5l90 51q97 -199 393 -199q191 0 299.5 103.5t108.5 279.5v189q-64 -121 -179 -191t-261 -70q-145 0 -266.5 70 t-193 193t-71.5 272zM199 512q0 -183 125.5 -309.5t308.5 -126.5t308.5 126.5t125.5 309.5t-125.5 309.5t-308.5 126.5t-308.5 -126.5t-125.5 -309.5z" />
<glyph unicode="h" horiz-adv-x="1155" d="M158 0v1434h102v-605q112 218 367 218q182 0 289.5 -111.5t107.5 -298.5v-637h-104v637q0 143 -79.5 227t-222.5 84q-159 0 -258.5 -104t-99.5 -303v-541h-102z" />
<glyph unicode="i" horiz-adv-x="417" d="M127 1354q0 32 24 56t58 24t58 -24t24 -56q0 -34 -24 -58t-58 -24t-58 24t-24 58zM158 0v1024h102v-1024h-102z" />
<glyph unicode="j" horiz-adv-x="456" d="M-41 -334q23 -2 43 -2q90 0 137 43q58 53 58 176v1141h102v-1141q0 -164 -88 -247q-75 -70 -204 -70q-23 0 -48 2v98zM166 1354q0 32 24 56t58 24t58 -24t24 -56q0 -34 -24 -58t-58 -24t-58 24t-24 58z" />
<glyph unicode="k" horiz-adv-x="989" d="M158 0v1434h102v-875l518 465h144l-551 -492l571 -532h-139l-543 504v-504h-102z" />
<glyph unicode="l" horiz-adv-x="417" d="M158 0v1495h102v-1495h-102z" />
<glyph unicode="m" horiz-adv-x="1755" d="M158 0v1024h102v-176q55 102 141 150.5t189 48.5q113 0 196 -54t123 -155q54 104 144.5 156.5t197.5 52.5q167 0 270 -105t103 -293v-649h-102v649q0 143 -75 221t-198 78q-137 0 -222 -94.5t-85 -282.5v-571h-102v649q0 144 -70.5 221.5t-191.5 77.5q-136 0 -227 -95.5 t-91 -281.5v-571h-102z" />
<glyph unicode="n" horiz-adv-x="1155" d="M158 0v1024h102v-195q112 218 367 218q182 0 289.5 -111.5t107.5 -298.5v-637h-104v637q0 143 -79.5 227t-222.5 84q-159 0 -258.5 -104t-99.5 -303v-541h-102z" />
<glyph unicode="o" horiz-adv-x="1251" d="M88 512q0 149 72 272t195.5 193t271.5 70q147 0 270 -70t194.5 -193t71.5 -272t-71.5 -272t-194.5 -193t-270 -70q-148 0 -271.5 70t-195.5 193t-72 272zM193 512q0 -183 125.5 -309.5t308.5 -126.5t307.5 126.5t124.5 309.5t-124.5 309.5t-307.5 126.5t-308.5 -126.5 t-125.5 -309.5z" />
<glyph unicode="p" d="M158 -410v1434h102v-238q64 121 179 191t261 70q145 0 266.5 -70t193 -193t71.5 -272t-71.5 -272t-193 -193t-266.5 -70q-146 0 -261 70t-179 191v-648h-102zM260 512q0 -183 125.5 -309.5t308.5 -126.5t308.5 126.5t125.5 309.5t-125.5 309.5t-308.5 126.5 t-308.5 -126.5t-125.5 -309.5z" />
<glyph unicode="q" d="M90 512q0 149 71.5 272t193 193t266.5 70q146 0 261 -70t179 -191v238h102v-1434h-102v648q-64 -121 -179 -191t-261 -70q-145 0 -266.5 70t-193 193t-71.5 272zM193 512q0 -183 125.5 -309.5t308.5 -126.5t308.5 126.5t125.5 309.5t-125.5 309.5t-308.5 126.5 t-308.5 -126.5t-125.5 -309.5z" />
<glyph unicode="r" horiz-adv-x="651" d="M158 0v1024h102v-201q93 215 342 215v-98q-68 0 -128 -21.5t-108.5 -65t-77 -116.5t-28.5 -168v-569h-102z" />
<glyph unicode="s" horiz-adv-x="937" d="M92 205l88 51q28 -84 107 -132t194 -48q114 0 189 50t75 142q0 56 -34 95t-89 60t-121 37.5t-132 37t-121 49t-89 81.5t-34 128q0 124 97 207.5t251 83.5q123 0 214.5 -55t133.5 -150l-86 -49q-31 76 -102 115.5t-160 39.5q-104 0 -175 -51.5t-71 -140.5q0 -55 34 -93 t89 -58.5t121 -37t132.5 -37t121.5 -49.5t89 -83t34 -130q0 -127 -102 -209t-265 -82q-148 0 -249.5 62.5t-139.5 165.5z" />
<glyph unicode="t" horiz-adv-x="770" d="M47 924v100h225v256l105 31v-287h305v-100h-305v-666q0 -88 32.5 -127.5t100.5 -43.5q21 -1 45 -1q55 0 127 6v-92q-72 -11 -131 -11q-111 0 -177 39q-102 60 -102 230v666h-225z" />
<glyph unicode="u" horiz-adv-x="1155" d="M131 387v637h105v-637q0 -143 79 -227t222 -84q159 0 258.5 104t99.5 303v541h102v-1024h-102v195q-112 -218 -367 -218q-182 0 -289.5 111.5t-107.5 298.5z" />
<glyph unicode="v" horiz-adv-x="1046" d="M27 1024h110l385 -918l387 918h109l-432 -1024h-125z" />
<glyph unicode="w" horiz-adv-x="1576" d="M68 1024h108l273 -891l286 891h107l286 -891l273 891h108l-323 -1024h-113l-285 872l-284 -872h-113z" />
<glyph unicode="x" horiz-adv-x="1038" d="M47 0l410 526l-385 498h125l321 -416l324 416h123l-383 -496l407 -528h-125l-346 446l-346 -446h-125z" />
<glyph unicode="y" horiz-adv-x="1044" d="M27 1024h110l414 -911l356 911h111l-443 -1118q-60 -152 -168 -239q-97 -78 -211 -78q-13 0 -26 1v97q12 -1 24 -1q85 0 154 57q78 65 127 183l23 56z" />
<glyph unicode="z" horiz-adv-x="976" d="M109 0v68l614 856h-594v100h737v-68l-612 -856h633v-100h-778z" />
<glyph unicode="{" horiz-adv-x="714" d="M109 670v98q119 0 171 43t52 162v383q0 164 88 241t254 62v-100q-123 14 -180.5 -33t-57.5 -170v-383q0 -111 -41 -172t-123 -82q82 -21 123 -82t41 -172v-383q0 -123 57 -170t181 -35v-98q-166 -15 -254 62t-88 241v383q0 119 -52 162t-171 43z" />
<glyph unicode="|" horiz-adv-x="458" d="M178 -410v1885h103v-1885h-103z" />
<glyph unicode="}" horiz-adv-x="714" d="M41 -123q124 -12 181 35t57 170v383q0 111 40.5 172t122.5 82q-82 21 -122.5 82t-40.5 172v383q0 123 -57.5 170t-180.5 33v100q166 15 254 -62t88 -241v-383q0 -119 52 -162t171 -43v-98q-119 0 -171 -43t-52 -162v-383q0 -164 -88 -241t-254 -62v98z" />
<glyph unicode="~" horiz-adv-x="1202" d="M129 637q14 45 35.5 82.5t52.5 68.5t72.5 46.5t91 16t112 -22t132.5 -68.5q284 -185 352 82l94 -45q-16 -55 -43 -98.5t-70 -74.5t-96 -39.5t-126.5 13t-157.5 76.5q-282 186 -355 -82z" />
<glyph unicode="&#xa1;" horiz-adv-x="450" d="M133 952q0 38 27 65t65 27t65 -27t27 -65t-27 -65t-65 -27t-65 27t-27 65zM164 0l20 655h82l21 -655v-410h-123v410z" />
<glyph unicode="&#xa2;" horiz-adv-x="1148" d="M88 717q0 228 154 381t385 153q50 0 108 -10l64 193h82l-70 -213q89 -31 157.5 -91t104.5 -141l-84 -49q-59 130 -209 186l-272 -829q59 -16 119 -16q122 0 219 57.5t149 155.5l86 -52q-62 -120 -183.5 -190t-270.5 -70q-79 0 -152 21l-65 -203h-82l73 227 q-143 62 -228 193.5t-85 296.5zM193 717q0 -129 65.5 -234.5t175.5 -158.5l271 823q-37 6 -78 6q-185 0 -309.5 -126t-124.5 -310z" />
<glyph unicode="&#xa3;" horiz-adv-x="1208" d="M88 0v104h205v496h-164v96h164v348q0 130 59.5 225.5t151.5 141t201 45.5q138 0 234.5 -69.5t147.5 -196.5l-88 -51q-76 213 -294 213q-132 0 -218 -81.5t-86 -226.5v-348h494v-96h-494v-496h773v-104h-1086z" />
<glyph unicode="&#xa4;" horiz-adv-x="1132" d="M88 293l145 143q-102 120 -102 281q0 160 102 280l-145 144l53 53l146 -143q122 98 278 98q159 0 281 -98l143 143l53 -53l-141 -144q100 -125 100 -280q0 -156 -100 -281l141 -143l-53 -53l-143 143q-122 -98 -281 -98q-156 0 -278 98l-146 -143zM236 717 q0 -140 95 -237t234 -97t235.5 97t96.5 237t-96.5 237t-235.5 97t-234 -97t-95 -237z" />
<glyph unicode="&#xa5;" horiz-adv-x="1167" d="M20 1434h123l449 -729h10l449 729h123l-453 -729h297v-93h-352l-15 -22v-135h367v-90h-367v-365h-108v365h-391v90h391v135l-15 22h-376v93h321z" />
<glyph unicode="&#xa6;" horiz-adv-x="458" d="M178 348h103v-758h-103v758zM178 717v758h103v-758h-103z" />
<glyph unicode="&#xa7;" horiz-adv-x="1040" d="M129 702q0 73 38.5 137.5t104.5 108.5q-88 88 -88 207q0 128 97.5 214.5t250.5 86.5q131 0 226 -62t139 -177l-84 -48q-38 93 -111 141t-170 48q-103 0 -173 -56t-70 -147q0 -40 17.5 -74.5t42 -59t69 -50.5t81 -43t94.5 -43q6 -3 10 -4.5t9.5 -4t10.5 -4.5 q58 -26 97.5 -46t87.5 -52.5t76 -65.5t48 -80.5t20 -101.5q0 -150 -135 -245q94 -87 94 -211q0 -129 -100 -214t-264 -85q-155 0 -261.5 69.5t-152.5 196.5l88 51q67 -217 326 -217q114 0 187 53t73 146q0 34 -10 63.5t-41 58t-48.5 45t-74 44t-73 35t-86.5 37.5 q-3 2 -5.5 3t-5.5 2q-59 25 -98.5 45t-88 52t-77.5 65t-49.5 80.5t-20.5 101.5zM233 702q0 -49 21 -88.5t62 -70t84 -52t104 -45.5q164 -63 233 -104q111 69 111 184q0 49 -20.5 88t-62.5 70.5t-83 52.5t-104 47q-152 60 -228 105q-117 -69 -117 -187z" />
<glyph unicode="&#xa8;" horiz-adv-x="600" d="M41 1255q0 32 22 54t54 22q31 0 52 -22t21 -54q0 -31 -21 -52t-52 -21q-32 0 -54 21t-22 52zM410 1255q0 32 21.5 54t53.5 22q31 0 52.5 -22t21.5 -54q0 -31 -21.5 -52t-52.5 -21q-32 0 -53.5 21t-21.5 52z" />
<glyph unicode="&#xa9;" horiz-adv-x="1673" d="M96 717q0 202 99.5 372t270 268.5t372.5 98.5q151 0 288.5 -58.5t236.5 -157t157.5 -235.5t58.5 -288t-58.5 -288t-157.5 -236t-236.5 -157.5t-288.5 -58.5t-288.5 58.5t-237 157.5t-158 236t-58.5 288zM150 717q0 -188 92.5 -347t250.5 -251t345 -92t344.5 92t249.5 251 t92 347t-92 347t-249.5 251t-344.5 92t-345 -92t-250.5 -251t-92.5 -347zM446 717q0 165 114.5 279t283.5 114q109 0 197.5 -51.5t136.5 -138.5l-86 -50q-33 68 -100.5 106t-147.5 38q-130 0 -212.5 -87.5t-82.5 -209.5t82.5 -209.5t212.5 -87.5q82 0 149.5 38t98.5 107 l88 -51q-48 -87 -137.5 -138.5t-198.5 -51.5q-169 0 -283.5 114t-114.5 279z" />
<glyph unicode="&#xab;" horiz-adv-x="960" d="M164 633l219 354h127l-219 -354l219 -354h-127zM453 633l217 354h127l-217 -354l217 -354h-127z" />
<glyph unicode="&#xac;" horiz-adv-x="1064" d="M129 682v100h807v-354h-105v254h-702z" />
<glyph unicode="&#xad;" horiz-adv-x="1091" d="M178 584v98h737v-98h-737z" />
<glyph unicode="&#xae;" horiz-adv-x="1673" d="M96 717q0 202 99.5 372t270 268.5t372.5 98.5q151 0 288.5 -58.5t236.5 -157t157.5 -235.5t58.5 -288t-58.5 -288t-157.5 -236t-236.5 -157.5t-288.5 -58.5t-288.5 58.5t-237 157.5t-158 236t-58.5 288zM150 717q0 -188 92.5 -347t250.5 -251t345 -92t344.5 92t249.5 251 t92 347t-92 347t-249.5 251t-344.5 92t-345 -92t-250.5 -251t-92.5 -347zM618 338v758h228q134 0 206 -69.5t72 -168.5q0 -168 -153 -217l172 -303h-109l-160 285h-28h-129v-285h-99zM717 717h133q88 0 132 37t44 104q0 65 -45.5 104t-130.5 39h-133v-284z" />
<glyph unicode="&#xaf;" horiz-adv-x="600" d="M41 1202v90h518v-90h-518z" />
<glyph unicode="&#xb0;" horiz-adv-x="790" d="M88 1358q0 126 88 213.5t219 87.5t219 -87.5t88 -213.5t-87 -212.5t-220 -86.5q-131 0 -219 87t-88 212zM190 1358q0 -87 58 -146t147 -59q90 0 147.5 59t57.5 146q0 88 -58 147.5t-147 59.5t-147 -59.5t-58 -147.5z" />
<glyph unicode="&#xb1;" horiz-adv-x="1091" d="M129 190v101h834v-101h-834zM129 797v100h367v346h100v-346h367v-100h-367v-346h-100v346h-367z" />
<glyph unicode="&#xb4;" horiz-adv-x="368" d="M41 1167h100l187 260h-123z" />
<glyph unicode="&#xb5;" horiz-adv-x="1243" d="M158 -410v1434h102v-637q0 -143 80 -227t223 -84q157 0 257 104.5t100 302.5v541h104v-840q0 -39 22.5 -61.5t61.5 -22.5h68v-100h-78q-82 0 -130 49.5t-48 134.5v6q-113 -213 -365 -213q-199 0 -295 138v-525h-102z" />
<glyph unicode="&#xb6;" horiz-adv-x="1167" d="M88 1038q0 164 116 280t281 116h594v-97h-123v-1747h-102v1747h-268v-1747h-101v1051q-165 0 -281 116t-116 281z" />
<glyph unicode="&#xb7;" horiz-adv-x="436" d="M127 707q0 39 26.5 65.5t65.5 26.5q38 0 65 -27t27 -65t-27 -65.5t-65 -27.5q-39 0 -65.5 27t-26.5 66z" />
<glyph unicode="&#xb8;" horiz-adv-x="466" d="M33 -348q151 -15 230 7t79 73q0 88 -188 88v180h92v-115q82 -9 134 -49.5t52 -103.5q0 -32 -11.5 -58t-39 -50t-73.5 -38t-114 -20.5t-161 2.5v84z" />
<glyph unicode="&#xbb;" horiz-adv-x="960" d="M164 279l217 354l-217 354h127l217 -354l-217 -354h-127zM451 279l219 354l-219 354h127l219 -354l-219 -354h-127z" />
<glyph unicode="&#xbc;" horiz-adv-x="1697" d="M27 1341l252 93h77v-820h-98v709l-205 -68zM272 0l832 1434h96l-833 -1434h-95zM1004 164v92l307 563h106l-307 -563h330v213h98v-213h111v-92h-111v-164h-98v164h-436z" />
<glyph unicode="&#xbd;" horiz-adv-x="1669" d="M27 1341l252 93h77v-820h-98v709l-205 -68zM272 0l832 1434h96l-833 -1434h-95zM1038 0v80l359 334q43 39 66.5 88t23.5 96q0 65 -45.5 108.5t-124.5 43.5q-144 0 -195 -136l-82 45q33 87 104.5 136t172.5 49q121 0 194.5 -71t73.5 -175q0 -136 -121 -248l-280 -256h418 v-94h-564z" />
<glyph unicode="&#xbe;" horiz-adv-x="1908" d="M57 756l82 47q53 -119 201 -119q93 0 142.5 46t49.5 120q0 73 -50.5 120.5t-141.5 47.5h-8l-47 72l198 249h-401v95h516v-95l-197 -243q108 -15 169 -81.5t61 -164.5q0 -114 -79 -187t-212 -73q-103 0 -175 43.5t-108 122.5zM483 0l832 1434h96l-833 -1434h-95zM1214 164 v92l308 563h106l-307 -563h330v213h98v-213h111v-92h-111v-164h-98v164h-437z" />
<glyph unicode="&#xbf;" horiz-adv-x="1085" d="M129 -63q0 63 22 120.5t57 103t77 89.5t84.5 88.5t77.5 90.5t57 104.5t22 121.5h109q0 -73 -22 -138.5t-56.5 -114.5t-76.5 -94.5t-84.5 -87.5t-77 -84t-56.5 -93t-22 -106q0 -127 84.5 -196t226.5 -69q123 0 212 56t122 161l92 -51q-46 -130 -162.5 -200t-263.5 -70 q-117 0 -211 41t-152.5 126t-58.5 202zM487 952q0 38 27.5 65t65.5 27q39 0 65.5 -26.5t26.5 -65.5t-26.5 -65.5t-65.5 -26.5q-38 0 -65.5 27t-27.5 65z" />
<glyph unicode="&#xc0;" horiz-adv-x="1288" d="M31 0l557 1434h114l555 -1434h-114l-139 365h-719l-140 -365h-114zM326 467h639l-320 833zM457 1837h123l163 -260h-98z" />
<glyph unicode="&#xc1;" horiz-adv-x="1288" d="M31 0l557 1434h114l555 -1434h-114l-139 365h-719l-140 -365h-114zM326 467h639l-320 833zM559 1577l164 260h123l-187 -260h-100z" />
<glyph unicode="&#xc2;" horiz-adv-x="1288" d="M31 0l557 1434h114l555 -1434h-114l-139 365h-719l-140 -365h-114zM326 467h639l-320 833zM362 1577l222 260h121l221 -260h-117l-164 195l-166 -195h-117z" />
<glyph unicode="&#xc3;" horiz-adv-x="1288" d="M31 0l557 1434h114l555 -1434h-114l-139 365h-719l-140 -365h-114zM326 467h639l-320 833zM367 1604q0 111 41 168t105.5 51t135.5 -68q44 -38 77.5 -55t58 -12.5t37 35.5t12.5 89h90q0 -111 -41.5 -167.5t-106 -51t-135.5 67.5q-60 51 -99.5 65t-62 -15t-22.5 -107h-90z " />
<glyph unicode="&#xc4;" horiz-adv-x="1288" d="M31 0l557 1434h114l555 -1434h-114l-139 365h-719l-140 -365h-114zM326 467h639l-320 833zM385 1665q0 32 22 54t54 22q31 0 52.5 -22t21.5 -54q0 -31 -21.5 -52.5t-52.5 -21.5q-32 0 -54 21.5t-22 52.5zM754 1665q0 32 21.5 54t53.5 22q31 0 52.5 -22t21.5 -54 q0 -31 -21.5 -52.5t-52.5 -21.5q-32 0 -53.5 21.5t-21.5 52.5z" />
<glyph unicode="&#xc5;" horiz-adv-x="1288" d="M31 0l538 1384q-63 20 -99 70.5t-36 116.5q0 86 58 142t151 56q94 0 152.5 -56t58.5 -142q0 -66 -36 -116.5t-97 -70.5l536 -1384h-114l-139 365h-719l-140 -365h-114zM326 467h639l-320 833zM522 1571q0 -52 32.5 -84.5t88.5 -32.5q58 0 91.5 32.5t33.5 84.5t-33.5 84.5 t-91.5 32.5q-56 0 -88.5 -32.5t-32.5 -84.5z" />
<glyph unicode="&#xc6;" horiz-adv-x="1787" d="M6 0l879 1434h803v-103h-658v-557h621v-102h-621v-570h668v-102h-778v375h-560l-229 -375h-125zM422 477h498v815z" />
<glyph unicode="&#xc7;" horiz-adv-x="1538" d="M96 717q0 152 56 288t153 235.5t237 157.5t300 58q196 0 360 -93t254 -251l-96 -55q-71 133 -211 214t-307 81q-138 0 -258 -50t-202.5 -135.5t-129.5 -202t-47 -247.5t47 -247.5t129.5 -202t202.5 -135.5t258 -50q169 0 310 82.5t212 218.5l96 -55q-84 -151 -236 -244.5 t-337 -103.5v-95q82 -9 134 -49.5t52 -103.5q0 -32 -11.5 -58t-39 -50t-73.5 -38t-114 -20.5t-161 2.5v84q151 -15 230 7t79 73q0 88 -188 88v160q-202 11 -362.5 112t-248.5 265t-88 360z" />
<glyph unicode="&#xc8;" horiz-adv-x="1091" d="M178 0v1434h815v-103h-706v-557h655v-102h-655v-570h717v-102h-826zM397 1837h123l164 -260h-98z" />
<glyph unicode="&#xc9;" horiz-adv-x="1091" d="M178 0v1434h815v-103h-706v-557h655v-102h-655v-570h717v-102h-826zM500 1577l164 260h122l-186 -260h-100z" />
<glyph unicode="&#xca;" horiz-adv-x="1091" d="M178 0v1434h815v-103h-706v-557h655v-102h-655v-570h717v-102h-826zM303 1577l221 260h121l221 -260h-116l-164 195l-166 -195h-117z" />
<glyph unicode="&#xcb;" horiz-adv-x="1091" d="M178 0v1434h815v-103h-706v-557h655v-102h-655v-570h717v-102h-826zM326 1665q0 32 21.5 54t53.5 22q31 0 52.5 -22t21.5 -54q0 -31 -21.5 -52.5t-52.5 -21.5q-32 0 -53.5 21.5t-21.5 52.5zM694 1665q0 32 22 54t54 22q31 0 52.5 -22t21.5 -54q0 -31 -21.5 -52.5 t-52.5 -21.5q-32 0 -54 21.5t-22 52.5z" />
<glyph unicode="&#xcc;" horiz-adv-x="464" d="M43 1837l188 -260h99l-164 260h-123zM178 0v1434h109v-1434h-109z" />
<glyph unicode="&#xcd;" horiz-adv-x="464" d="M145 1577h101l186 260h-123zM178 0v1434h109v-1434h-109z" />
<glyph unicode="&#xce;" horiz-adv-x="464" d="M-51 1577l221 260h121l221 -260h-117l-164 195l-165 -195h-117zM178 0v1434h109v-1434h-109z" />
<glyph unicode="&#xcf;" horiz-adv-x="464" d="M-29 1665q0 32 22 54t54 22q31 0 52.5 -22t21.5 -54q0 -31 -21.5 -52.5t-52.5 -21.5q-32 0 -54 21.5t-22 52.5zM178 0v1434h109v-1434h-109zM340 1665q0 32 22 54t54 22q31 0 52 -22t21 -54q0 -31 -21 -52.5t-52 -21.5q-32 0 -54 21.5t-22 52.5z" />
<glyph unicode="&#xd0;" horiz-adv-x="1529" d="M82 668v98h137v668h539q145 0 271.5 -56.5t215 -153.5t139 -228.5t50.5 -278.5t-50.5 -278.5t-139 -228.5t-215 -153.5t-271.5 -56.5h-539v668h-137zM328 102h430q165 0 296 83t202 223t71 309t-71 309t-202 222.5t-296 82.5h-430v-565h491v-98h-491v-566z" />
<glyph unicode="&#xd1;" horiz-adv-x="1406" d="M178 0v1434h94l848 -1233v1233h109v-1434h-96l-846 1233v-1233h-109zM418 1604q0 111 41 168t105.5 51t135.5 -68q44 -38 77.5 -55t58 -12.5t37 35.5t12.5 89h90q0 -111 -41.5 -167.5t-106 -51t-135.5 67.5q-60 51 -99.5 65t-62 -15t-22.5 -107h-90z" />
<glyph unicode="&#xd2;" horiz-adv-x="1671" d="M96 717q0 151 58 288t156.5 236t236 157t289.5 58q122 0 235.5 -37t204 -105.5t158.5 -159t104.5 -203.5t36.5 -234q0 -202 -97.5 -372t-268 -269t-373.5 -99t-373.5 99t-268.5 269t-98 372zM205 717q0 -174 83 -319.5t228.5 -230.5t319.5 -85t319 85t228 230.5t83 319.5 t-83 319.5t-228 230.5t-319 85t-319.5 -85t-228.5 -230.5t-83 -319.5zM647 1837l189 -260h98l-164 260h-123z" />
<glyph unicode="&#xd3;" horiz-adv-x="1671" d="M96 717q0 151 58 288t156.5 236t236 157t289.5 58q122 0 235.5 -37t204 -105.5t158.5 -159t104.5 -203.5t36.5 -234q0 -202 -97.5 -372t-268 -269t-373.5 -99t-373.5 99t-268.5 269t-98 372zM205 717q0 -174 83 -319.5t228.5 -230.5t319.5 -85t319 85t228 230.5t83 319.5 t-83 319.5t-228 230.5t-319 85t-319.5 -85t-228.5 -230.5t-83 -319.5zM750 1577h100l186 260h-123z" />
<glyph unicode="&#xd4;" horiz-adv-x="1671" d="M96 717q0 151 58 288t156.5 236t236 157t289.5 58q122 0 235.5 -37t204 -105.5t158.5 -159t104.5 -203.5t36.5 -234q0 -202 -97.5 -372t-268 -269t-373.5 -99t-373.5 99t-268.5 269t-98 372zM205 717q0 -174 83 -319.5t228.5 -230.5t319.5 -85t319 85t228 230.5t83 319.5 t-83 319.5t-228 230.5t-319 85t-319.5 -85t-228.5 -230.5t-83 -319.5zM553 1577l221 260h121l221 -260h-117l-163 195l-166 -195h-117z" />
<glyph unicode="&#xd5;" horiz-adv-x="1671" d="M96 717q0 151 58 288t156.5 236t236 157t289.5 58q122 0 235.5 -37t204 -105.5t158.5 -159t104.5 -203.5t36.5 -234q0 -202 -97.5 -372t-268 -269t-373.5 -99t-373.5 99t-268.5 269t-98 372zM205 717q0 -174 83 -319.5t228.5 -230.5t319.5 -85t319 85t228 230.5t83 319.5 t-83 319.5t-228 230.5t-319 85t-319.5 -85t-228.5 -230.5t-83 -319.5zM557 1604q0 111 41.5 168t106 51t135.5 -68q60 -51 99.5 -64.5t62 15.5t22.5 106h90q0 -111 -41.5 -167.5t-106 -51t-135.5 67.5q-60 51 -99.5 65t-62 -15t-22.5 -107h-90z" />
<glyph unicode="&#xd6;" horiz-adv-x="1671" d="M96 717q0 151 58 288t156.5 236t236 157t289.5 58q122 0 235.5 -37t204 -105.5t158.5 -159t104.5 -203.5t36.5 -234q0 -202 -97.5 -372t-268 -269t-373.5 -99t-373.5 99t-268.5 269t-98 372zM205 717q0 -174 83 -319.5t228.5 -230.5t319.5 -85t319 85t228 230.5t83 319.5 t-83 319.5t-228 230.5t-319 85t-319.5 -85t-228.5 -230.5t-83 -319.5zM575 1665q0 32 22 54t54 22q31 0 52.5 -22t21.5 -54q0 -31 -21.5 -52.5t-52.5 -21.5q-32 0 -54 21.5t-22 52.5zM944 1665q0 32 22 54t54 22q31 0 52.5 -22t21.5 -54q0 -31 -21.5 -52.5t-52.5 -21.5 q-32 0 -54 21.5t-22 52.5z" />
<glyph unicode="&#xd7;" horiz-adv-x="960" d="M117 422l295 295l-295 295l69 65l293 -293l293 293l72 -65l-295 -295l295 -295l-72 -66l-293 293l-293 -293z" />
<glyph unicode="&#xd8;" horiz-adv-x="1691" d="M117 717q0 121 36.5 234t104.5 203.5t158.5 159t204 105.5t235.5 37q253 0 451 -149l108 127l74 -43l-119 -140q106 -103 165.5 -241t59.5 -293q0 -202 -97.5 -372t-268 -269t-373.5 -99q-252 0 -448 150l-109 -127l-76 43l119 139q-106 103 -165.5 241.5t-59.5 293.5z M225 717q0 -131 49.5 -248t137.5 -207l825 963q-165 127 -381 127q-174 0 -319.5 -85t-228.5 -230.5t-83 -319.5zM477 207q167 -125 379 -125q174 0 319.5 85t228.5 230.5t83 319.5q0 131 -49.5 247.5t-137.5 204.5z" />
<glyph unicode="&#xd9;" horiz-adv-x="1366" d="M158 479v955h108v-955q0 -179 109 -288t307 -109q199 0 308.5 109t109.5 288v955h108v-955q0 -227 -144.5 -364.5t-381.5 -137.5q-236 0 -380 137.5t-144 364.5zM492 1837l188 -260h98l-164 260h-122z" />
<glyph unicode="&#xda;" horiz-adv-x="1366" d="M158 479v955h108v-955q0 -179 109 -288t307 -109q199 0 308.5 109t109.5 288v955h108v-955q0 -227 -144.5 -364.5t-381.5 -137.5q-236 0 -380 137.5t-144 364.5zM594 1577h100l187 260h-123z" />
<glyph unicode="&#xdb;" horiz-adv-x="1366" d="M158 479v955h108v-955q0 -179 109 -288t307 -109q199 0 308.5 109t109.5 288v955h108v-955q0 -227 -144.5 -364.5t-381.5 -137.5q-236 0 -380 137.5t-144 364.5zM397 1577l221 260h121l222 -260h-117l-164 195l-166 -195h-117z" />
<glyph unicode="&#xdc;" horiz-adv-x="1366" d="M158 479v955h108v-955q0 -179 109 -288t307 -109q199 0 308.5 109t109.5 288v955h108v-955q0 -227 -144.5 -364.5t-381.5 -137.5q-236 0 -380 137.5t-144 364.5zM420 1665q0 32 22 54t54 22q31 0 52 -22t21 -54q0 -31 -21 -52.5t-52 -21.5q-32 0 -54 21.5t-22 52.5z M788 1665q0 32 22 54t54 22q31 0 52.5 -22t21.5 -54q0 -31 -21.5 -52.5t-52.5 -21.5q-32 0 -54 21.5t-22 52.5z" />
<glyph unicode="&#xdd;" horiz-adv-x="1193" d="M20 1434h123l455 -740l453 740h123l-523 -844v-590h-108v590zM506 1577l164 260h123l-187 -260h-100z" />
<glyph unicode="&#xde;" horiz-adv-x="1202" d="M178 0v1434h109v-273h379q193 0 319.5 -126.5t126.5 -317.5q0 -190 -126.5 -317.5t-319.5 -127.5h-379v-272h-109zM287 375h379q147 0 242.5 97t95.5 245q0 149 -95 245.5t-243 96.5h-379v-684z" />
<glyph unicode="&#xdf;" horiz-adv-x="1056" d="M158 0v1057q0 187 108.5 293t282.5 106q161 0 253.5 -90t92.5 -223q0 -46 -19.5 -89t-47 -75t-55 -61t-47 -57.5t-19.5 -53.5q0 -32 22.5 -68.5t56 -70t73 -77t73 -86t56 -99.5t22.5 -117q0 -144 -110.5 -225.5t-305.5 -71.5v94q145 -8 228 44t83 159q0 57 -31 115 t-75.5 107.5t-88.5 97t-75 99.5t-31 99q0 35 19.5 70t47 64.5t54.5 60t46.5 67t19.5 74.5q0 97 -66 156t-176 59q-127 0 -208 -76.5t-81 -224.5v-1057h-102z" />
<glyph unicode="&#xe0;" d="M88 512q0 149 71.5 272t193 193t265.5 70q145 0 260 -68t181 -186v231h104v-1024h-104v231q-66 -118 -181 -186t-260 -68q-144 0 -265.5 70t-193 193t-71.5 272zM193 512q0 -183 125.5 -309.5t308.5 -126.5t307.5 126.5t124.5 309.5t-124.5 309.5t-307.5 126.5 t-308.5 -126.5t-125.5 -309.5zM440 1427h123l164 -260h-98z" />
<glyph unicode="&#xe1;" d="M88 512q0 149 71.5 272t193 193t265.5 70q145 0 260 -68t181 -186v231h104v-1024h-104v231q-66 -118 -181 -186t-260 -68q-144 0 -265.5 70t-193 193t-71.5 272zM193 512q0 -183 125.5 -309.5t308.5 -126.5t307.5 126.5t124.5 309.5t-124.5 309.5t-307.5 126.5 t-308.5 -126.5t-125.5 -309.5zM543 1167l164 260h122l-186 -260h-100z" />
<glyph unicode="&#xe2;" d="M88 512q0 149 71.5 272t193 193t265.5 70q145 0 260 -68t181 -186v231h104v-1024h-104v231q-66 -118 -181 -186t-260 -68q-144 0 -265.5 70t-193 193t-71.5 272zM193 512q0 -183 125.5 -309.5t308.5 -126.5t307.5 126.5t124.5 309.5t-124.5 309.5t-307.5 126.5 t-308.5 -126.5t-125.5 -309.5zM346 1167l221 260h121l221 -260h-116l-164 195l-166 -195h-117z" />
<glyph unicode="&#xe3;" d="M88 512q0 149 71.5 272t193 193t265.5 70q145 0 260 -68t181 -186v231h104v-1024h-104v231q-66 -118 -181 -186t-260 -68q-144 0 -265.5 70t-193 193t-71.5 272zM193 512q0 -183 125.5 -309.5t308.5 -126.5t307.5 126.5t124.5 309.5t-124.5 309.5t-307.5 126.5 t-308.5 -126.5t-125.5 -309.5zM350 1194q0 111 41.5 168t106 51.5t135.5 -67.5q60 -51 99.5 -64.5t62 15.5t22.5 106h90q0 -83 -24.5 -137t-64 -71.5t-90 -3.5t-103.5 60q-60 51 -99.5 65t-62.5 -15t-23 -107h-90z" />
<glyph unicode="&#xe4;" d="M88 512q0 149 71.5 272t193 193t265.5 70q145 0 260 -68t181 -186v231h104v-1024h-104v231q-66 -118 -181 -186t-260 -68q-144 0 -265.5 70t-193 193t-71.5 272zM193 512q0 -183 125.5 -309.5t308.5 -126.5t307.5 126.5t124.5 309.5t-124.5 309.5t-307.5 126.5 t-308.5 -126.5t-125.5 -309.5zM369 1255q0 32 21.5 54t53.5 22q31 0 52.5 -22t21.5 -54q0 -31 -21.5 -52t-52.5 -21q-32 0 -53.5 21t-21.5 52zM737 1255q0 32 22 54t54 22q31 0 52.5 -22t21.5 -54q0 -31 -21.5 -52t-52.5 -21q-32 0 -54 21t-22 52z" />
<glyph unicode="&#xe5;" d="M88 512q0 149 71.5 272t193 193t265.5 70q145 0 260 -68t181 -186v231h104v-1024h-104v231q-66 -118 -181 -186t-260 -68q-144 0 -265.5 70t-193 193t-71.5 272zM193 512q0 -183 125.5 -309.5t308.5 -126.5t307.5 126.5t124.5 309.5t-124.5 309.5t-307.5 126.5 t-308.5 -126.5t-125.5 -309.5zM420 1331q0 86 58 142.5t151 56.5q94 0 152.5 -56.5t58.5 -142.5t-58.5 -142t-152.5 -56q-93 0 -151 56t-58 142zM508 1331q0 -52 32.5 -84.5t88.5 -32.5q58 0 91.5 32.5t33.5 84.5t-33.5 84.5t-91.5 32.5q-56 0 -88.5 -32.5t-32.5 -84.5z" />
<glyph unicode="&#xe6;" horiz-adv-x="2172" d="M88 512q0 149 71.5 272t193 193t265.5 70q145 0 260 -68t181 -186v231h102v-238q60 122 170 191.5t260 69.5q117 0 213.5 -44.5t158 -120t95 -172t33.5 -202.5q0 -8 -1 -24.5t-1 -24.5h-924q17 -173 134 -278t292 -105q128 0 222.5 50.5t140.5 135.5l90 -53 q-63 -107 -178.5 -169.5t-261.5 -62.5q-153 0 -267.5 67t-175.5 189v-233h-102v231q-66 -118 -181 -186t-260 -68q-144 0 -265.5 70t-193 193t-71.5 272zM193 512q0 -183 125.5 -309.5t308.5 -126.5t307.5 126.5t124.5 309.5t-124.5 309.5t-307.5 126.5t-308.5 -126.5 t-125.5 -309.5zM1165 559h822q-17 182 -128.5 285.5t-271.5 103.5q-178 0 -292.5 -108t-129.5 -281z" />
<glyph unicode="&#xe7;" horiz-adv-x="1148" d="M88 512q0 228 154 381.5t385 153.5q150 0 270 -71t176 -192l-84 -49q-45 97 -142.5 155t-219.5 58q-185 0 -309.5 -126t-124.5 -310t124.5 -310t309.5 -126q122 0 219 57.5t149 155.5l86 -51q-57 -109 -166 -178.5t-243 -79.5v-95q82 -9 134 -49.5t52 -103.5 q0 -32 -11.5 -58t-39 -50t-73.5 -38t-114 -20.5t-161 2.5v84q151 -15 230 7t79 73q0 88 -188 88v160q-214 17 -353 167t-139 365z" />
<glyph unicode="&#xe8;" horiz-adv-x="1206" d="M88 512q0 228 149 381.5t381 153.5q150 0 267.5 -76.5t178 -198.5t60.5 -264q0 -8 -1 -24.5t-1 -24.5h-927q19 -173 139 -278t295 -105q123 0 215.5 51t138.5 135l90 -53q-65 -107 -181 -169.5t-265 -62.5q-236 0 -387.5 151.5t-151.5 383.5zM195 559h823 q-17 181 -130 285t-270 104q-174 0 -291 -109t-132 -280zM418 1427h123l164 -260h-99z" />
<glyph unicode="&#xe9;" horiz-adv-x="1206" d="M88 512q0 228 149 381.5t381 153.5q150 0 267.5 -76.5t178 -198.5t60.5 -264q0 -8 -1 -24.5t-1 -24.5h-927q19 -173 139 -278t295 -105q123 0 215.5 51t138.5 135l90 -53q-65 -107 -181 -169.5t-265 -62.5q-236 0 -387.5 151.5t-151.5 383.5zM195 559h823 q-17 181 -130 285t-270 104q-174 0 -291 -109t-132 -280zM520 1167l164 260h123l-186 -260h-101z" />
<glyph unicode="&#xea;" horiz-adv-x="1206" d="M88 512q0 228 149 381.5t381 153.5q150 0 267.5 -76.5t178 -198.5t60.5 -264q0 -8 -1 -24.5t-1 -24.5h-927q19 -173 139 -278t295 -105q123 0 215.5 51t138.5 135l90 -53q-65 -107 -181 -169.5t-265 -62.5q-236 0 -387.5 151.5t-151.5 383.5zM195 559h823 q-17 181 -130 285t-270 104q-174 0 -291 -109t-132 -280zM324 1167l221 260h121l221 -260h-117l-164 195l-166 -195h-116z" />
<glyph unicode="&#xeb;" horiz-adv-x="1206" d="M88 512q0 228 149 381.5t381 153.5q150 0 267.5 -76.5t178 -198.5t60.5 -264q0 -8 -1 -24.5t-1 -24.5h-927q19 -173 139 -278t295 -105q123 0 215.5 51t138.5 135l90 -53q-65 -107 -181 -169.5t-265 -62.5q-236 0 -387.5 151.5t-151.5 383.5zM195 559h823 q-17 181 -130 285t-270 104q-174 0 -291 -109t-132 -280zM346 1255q0 32 22 54t54 22q31 0 52.5 -22t21.5 -54q0 -31 -21.5 -52t-52.5 -21q-32 0 -54 21t-22 52zM715 1255q0 32 22 54t54 22q31 0 52 -22t21 -54q0 -31 -21 -52t-52 -21q-32 0 -54 21t-22 52z" />
<glyph unicode="&#xec;" horiz-adv-x="417" d="M27 1427l135 -260h100l-112 260h-123zM158 0v1024h102v-1024h-102z" />
<glyph unicode="&#xed;" horiz-adv-x="417" d="M154 1167h100l137 260h-125zM158 0v1024h102v-1024h-102z" />
<glyph unicode="&#xee;" horiz-adv-x="417" d="M-25 1167l172 260h123l172 -260h-116l-117 176l-117 -176h-117zM158 0v1024h102v-1024h-102z" />
<glyph unicode="&#xef;" horiz-adv-x="417" d="M-2 1255q0 32 21.5 54t52.5 22q32 0 53.5 -22t21.5 -54q0 -31 -21.5 -52t-53.5 -21q-31 0 -52.5 21t-21.5 52zM158 0v1024h102v-1024h-102zM270 1255q0 32 22 54t54 22q31 0 52.5 -22t21.5 -54q0 -31 -21.5 -52t-52.5 -21q-32 0 -54 21t-22 52z" />
<glyph unicode="&#xf0;" horiz-adv-x="1202" d="M88 471q0 141 71 252.5t184 170t243 58.5q114 0 202 -45l-210 281l-244 -150v95l196 120l-135 181h121l96 -129l228 139v-94l-178 -111l358 -481q94 -129 94 -287q0 -110 -42 -204.5t-112.5 -157t-163.5 -97.5t-194 -35t-194 35t-164 97.5t-113.5 157t-42.5 204.5z M193 471q0 -175 119 -285t290 -110t289.5 110t118.5 285q0 138 -68 229q-117 154 -340 154q-175 0 -292 -108t-117 -275z" />
<glyph unicode="&#xf1;" horiz-adv-x="1155" d="M158 0v1024h102v-195q112 218 367 218q182 0 289.5 -111.5t107.5 -298.5v-637h-104v637q0 143 -79.5 227t-222.5 84q-159 0 -258.5 -104t-99.5 -303v-541h-102zM319 1194q0 111 41.5 168t106 51.5t135.5 -67.5q60 -51 99.5 -64.5t62 15.5t22.5 106h91q0 -83 -24.5 -137 t-64 -71.5t-90.5 -3.5t-104 60q-60 51 -99.5 65t-62 -15t-22.5 -107h-91z" />
<glyph unicode="&#xf2;" horiz-adv-x="1251" d="M88 512q0 149 72 272t195.5 193t271.5 70q147 0 270 -70t194.5 -193t71.5 -272t-71.5 -272t-194.5 -193t-270 -70q-148 0 -271.5 70t-195.5 193t-72 272zM193 512q0 -183 125.5 -309.5t308.5 -126.5t307.5 126.5t124.5 309.5t-124.5 309.5t-307.5 126.5t-308.5 -126.5 t-125.5 -309.5zM432 1427l189 -260h98l-164 260h-123z" />
<glyph unicode="&#xf3;" horiz-adv-x="1251" d="M88 512q0 149 72 272t195.5 193t271.5 70q147 0 270 -70t194.5 -193t71.5 -272t-71.5 -272t-194.5 -193t-270 -70q-148 0 -271.5 70t-195.5 193t-72 272zM193 512q0 -183 125.5 -309.5t308.5 -126.5t307.5 126.5t124.5 309.5t-124.5 309.5t-307.5 126.5t-308.5 -126.5 t-125.5 -309.5zM535 1167h100l186 260h-123z" />
<glyph unicode="&#xf4;" horiz-adv-x="1251" d="M88 512q0 149 72 272t195.5 193t271.5 70q147 0 270 -70t194.5 -193t71.5 -272t-71.5 -272t-194.5 -193t-270 -70q-148 0 -271.5 70t-195.5 193t-72 272zM193 512q0 -183 125.5 -309.5t308.5 -126.5t307.5 126.5t124.5 309.5t-124.5 309.5t-307.5 126.5t-308.5 -126.5 t-125.5 -309.5zM338 1167l221 260h121l221 -260h-117l-163 195l-166 -195h-117z" />
<glyph unicode="&#xf5;" horiz-adv-x="1251" d="M88 512q0 149 72 272t195.5 193t271.5 70q147 0 270 -70t194.5 -193t71.5 -272t-71.5 -272t-194.5 -193t-270 -70q-148 0 -271.5 70t-195.5 193t-72 272zM193 512q0 -183 125.5 -309.5t308.5 -126.5t307.5 126.5t124.5 309.5t-124.5 309.5t-307.5 126.5t-308.5 -126.5 t-125.5 -309.5zM342 1194q0 111 41.5 168t106 51.5t135.5 -67.5q60 -51 99.5 -64.5t62 15.5t22.5 106h90q0 -83 -24.5 -137t-64 -71.5t-90.5 -3.5t-104 60q-60 51 -99.5 65t-62 -15t-22.5 -107h-90z" />
<glyph unicode="&#xf6;" horiz-adv-x="1251" d="M88 512q0 149 72 272t195.5 193t271.5 70q147 0 270 -70t194.5 -193t71.5 -272t-71.5 -272t-194.5 -193t-270 -70q-148 0 -271.5 70t-195.5 193t-72 272zM193 512q0 -183 125.5 -309.5t308.5 -126.5t307.5 126.5t124.5 309.5t-124.5 309.5t-307.5 126.5t-308.5 -126.5 t-125.5 -309.5zM360 1255q0 32 22 54t54 22q31 0 52.5 -22t21.5 -54q0 -31 -21.5 -52t-52.5 -21q-32 0 -54 21t-22 52zM729 1255q0 32 22 54t54 22q31 0 52.5 -22t21.5 -54q0 -31 -21.5 -52t-52.5 -21q-32 0 -54 21t-22 52z" />
<glyph unicode="&#xf7;" horiz-adv-x="1187" d="M129 668v98h930v-98h-930zM502 334q0 38 27 65t65 27t65 -27t27 -65t-27 -65t-65 -27t-65 27t-27 65zM502 1100q0 38 27 65t65 27t65 -27t27 -65t-27 -65t-65 -27t-65 27t-27 65z" />
<glyph unicode="&#xf8;" horiz-adv-x="1251" d="M88 512q0 149 72 272t195.5 193t271.5 70q187 0 331 -113l86 96l66 -37l-96 -106q70 -74 109.5 -170.5t39.5 -204.5q0 -149 -71.5 -272t-194.5 -193t-270 -70q-190 0 -334 113l-86 -96l-64 37l97 106q-72 72 -112 169t-40 206zM193 512q0 -176 114 -299l584 647 q-115 88 -264 88q-183 0 -308.5 -126.5t-125.5 -309.5zM360 164q118 -88 267 -88q183 0 307.5 126.5t124.5 309.5q0 174 -115 299z" />
<glyph unicode="&#xf9;" horiz-adv-x="1155" d="M131 387v637h105v-637q0 -143 79 -227t222 -84q159 0 258.5 104t99.5 303v541h102v-1024h-102v195q-112 -218 -367 -218q-182 0 -289.5 111.5t-107.5 298.5zM373 1427h123l163 -260h-98z" />
<glyph unicode="&#xfa;" horiz-adv-x="1155" d="M131 387v637h105v-637q0 -143 79 -227t222 -84q159 0 258.5 104t99.5 303v541h102v-1024h-102v195q-112 -218 -367 -218q-182 0 -289.5 111.5t-107.5 298.5zM475 1167l164 260h123l-187 -260h-100z" />
<glyph unicode="&#xfb;" horiz-adv-x="1155" d="M131 387v637h105v-637q0 -143 79 -227t222 -84q159 0 258.5 104t99.5 303v541h102v-1024h-102v195q-112 -218 -367 -218q-182 0 -289.5 111.5t-107.5 298.5zM279 1167l221 260h121l221 -260h-117l-164 195l-166 -195h-116z" />
<glyph unicode="&#xfc;" horiz-adv-x="1155" d="M131 387v637h105v-637q0 -143 79 -227t222 -84q159 0 258.5 104t99.5 303v541h102v-1024h-102v195q-112 -218 -367 -218q-182 0 -289.5 111.5t-107.5 298.5zM301 1255q0 32 22 54t54 22q31 0 52.5 -22t21.5 -54q0 -31 -21.5 -52t-52.5 -21q-32 0 -54 21t-22 52zM670 1255 q0 32 21.5 54t53.5 22q31 0 52.5 -22t21.5 -54q0 -31 -21.5 -52t-52.5 -21q-32 0 -53.5 21t-21.5 52z" />
<glyph unicode="&#xfd;" horiz-adv-x="1044" d="M27 1024h110l414 -911l356 911h111l-443 -1118q-60 -152 -168 -239t-237 -77v97q99 -9 177.5 56t127.5 183l23 56zM442 1167l164 260h123l-186 -260h-101z" />
<glyph unicode="&#xfe;" d="M158 -410v1844h102v-648q64 121 179 191t261 70q145 0 266.5 -70t193 -193t71.5 -272t-71.5 -272t-193 -193t-266.5 -70q-146 0 -261 70t-179 191v-648h-102zM260 512q0 -183 125.5 -309.5t308.5 -126.5t308.5 126.5t125.5 309.5t-125.5 309.5t-308.5 126.5 t-308.5 -126.5t-125.5 -309.5z" />
<glyph unicode="&#xff;" horiz-adv-x="1044" d="M27 1024h110l414 -911l356 911h111l-443 -1118q-60 -152 -168 -239t-237 -77v97q99 -9 177.5 56t127.5 183l23 56zM268 1255q0 32 22 54t54 22q31 0 52.5 -22t21.5 -54q0 -31 -21.5 -52t-52.5 -21q-32 0 -54 21t-22 52zM637 1255q0 32 22 54t54 22q31 0 52 -22t21 -54 q0 -31 -21 -52t-52 -21q-32 0 -54 21t-22 52z" />
<glyph unicode="&#x152;" horiz-adv-x="1867" d="M96 717q0 152 53.5 288t147 235.5t228.5 157.5t290 58q103 0 193 -22h761v-103h-653v-557h615v-102h-615v-570h664v-102h-772q-94 -23 -193 -23q-155 0 -290 58t-228.5 158t-147 236t-53.5 288zM205 717q0 -131 45 -247.5t124 -202t193.5 -135.5t247.5 -50q101 0 193 29 v1212q-92 29 -193 29q-133 0 -247.5 -50t-193.5 -135.5t-124 -202t-45 -247.5z" />
<glyph unicode="&#x153;" horiz-adv-x="2172" d="M88 512q0 112 41.5 211t112.5 170t171.5 112.5t213.5 41.5q167 0 295 -89t186 -239q55 149 182 238.5t297 89.5q149 0 266 -76.5t177.5 -198.5t60.5 -264q0 -33 -2 -49h-928q19 -173 139 -278t295 -105q123 0 216 51t139 135l90 -53q-63 -107 -179 -169.5t-264 -62.5 q-176 0 -305 88t-184 238q-58 -148 -187 -237t-294 -89q-113 0 -213.5 41.5t-171.5 112.5t-112.5 170t-41.5 211zM193 512q0 -185 123.5 -310.5t310.5 -125.5q182 0 306 126t124 310t-124 310t-306 126q-187 0 -310.5 -125.5t-123.5 -310.5zM1161 559h824q-17 181 -130 285 t-270 104q-173 0 -291 -109t-133 -280z" />
<glyph unicode="&#x178;" horiz-adv-x="1193" d="M20 1434h123l455 -740l453 740h123l-523 -844v-590h-108v590zM332 1665q0 32 22 54t54 22q31 0 52 -22t21 -54q0 -31 -21 -52.5t-52 -21.5q-32 0 -54 21.5t-22 52.5zM700 1665q0 32 22 54t54 22q31 0 52.5 -22t21.5 -54q0 -31 -21.5 -52.5t-52.5 -21.5q-32 0 -54 21.5 t-22 52.5z" />
<glyph unicode="&#x2c6;" horiz-adv-x="645" d="M41 1167l221 260h121l221 -260h-117l-163 195l-166 -195h-117z" />
<glyph unicode="&#x2dc;" horiz-adv-x="638" d="M41 1194q0 111 41.5 168t106 51.5t135.5 -67.5q60 -51 99.5 -64.5t62 15.5t22.5 106h90q0 -83 -24.5 -137t-64 -71.5t-90.5 -3.5t-104 60q-60 51 -99.5 65t-62 -15t-22.5 -107h-90z" />
<glyph unicode="&#x2000;" horiz-adv-x="918" />
<glyph unicode="&#x2001;" horiz-adv-x="1837" />
<glyph unicode="&#x2002;" horiz-adv-x="918" />
<glyph unicode="&#x2003;" horiz-adv-x="1837" />
<glyph unicode="&#x2004;" horiz-adv-x="612" />
<glyph unicode="&#x2005;" horiz-adv-x="459" />
<glyph unicode="&#x2006;" horiz-adv-x="306" />
<glyph unicode="&#x2007;" horiz-adv-x="306" />
<glyph unicode="&#x2008;" horiz-adv-x="229" />
<glyph unicode="&#x2009;" horiz-adv-x="367" />
<glyph unicode="&#x200a;" horiz-adv-x="102" />
<glyph unicode="&#x2010;" horiz-adv-x="1091" d="M178 584v98h737v-98h-737z" />
<glyph unicode="&#x2011;" horiz-adv-x="1091" d="M178 584v98h737v-98h-737z" />
<glyph unicode="&#x2012;" horiz-adv-x="1091" d="M178 584v98h737v-98h-737z" />
<glyph unicode="&#x2013;" horiz-adv-x="1378" d="M178 584v98h1024v-98h-1024z" />
<glyph unicode="&#x2014;" horiz-adv-x="1583" d="M178 584v98h1229v-98h-1229z" />
<glyph unicode="&#x2018;" horiz-adv-x="456" d="M125 1008l111 426h94l-78 -426h-127z" />
<glyph unicode="&#x2019;" horiz-adv-x="456" d="M127 1008l78 426h127l-111 -426h-94z" />
<glyph unicode="&#x201a;" horiz-adv-x="456" d="M127 -287l78 426h127l-111 -426h-94z" />
<glyph unicode="&#x201c;" horiz-adv-x="716" d="M125 1008l111 426h94l-78 -426h-127zM385 1008l111 426h94l-78 -426h-127z" />
<glyph unicode="&#x201d;" horiz-adv-x="716" d="M127 1008l78 426h127l-111 -426h-94zM387 1008l78 426h127l-111 -426h-94z" />
<glyph unicode="&#x201e;" horiz-adv-x="716" d="M127 -287l78 426h127l-111 -426h-94zM387 -287l78 426h127l-111 -426h-94z" />
<glyph unicode="&#x2022;" horiz-adv-x="573" d="M109 719q0 73 52.5 124.5t127.5 51.5q73 0 124.5 -51.5t51.5 -124.5q0 -75 -51.5 -127.5t-124.5 -52.5q-75 0 -127.5 52.5t-52.5 127.5z" />
<glyph unicode="&#x2026;" horiz-adv-x="1214" d="M127 72q0 39 26.5 65.5t65.5 26.5q38 0 65 -27t27 -65t-27 -65t-65 -27q-39 0 -65.5 26.5t-26.5 65.5zM516 72q0 39 26.5 65.5t65.5 26.5q38 0 65 -27t27 -65t-27 -65t-65 -27q-39 0 -65.5 26.5t-26.5 65.5zM905 72q0 39 26.5 65.5t65.5 26.5q38 0 65.5 -27t27.5 -65 t-27.5 -65t-65.5 -27q-39 0 -65.5 26.5t-26.5 65.5z" />
<glyph unicode="&#x202f;" horiz-adv-x="367" />
<glyph unicode="&#x2039;" horiz-adv-x="673" d="M164 633l219 354h127l-219 -354l219 -354h-127z" />
<glyph unicode="&#x203a;" horiz-adv-x="673" d="M164 279l219 354l-219 354h127l219 -354l-219 -354h-127z" />
<glyph unicode="&#x205f;" horiz-adv-x="459" />
<glyph unicode="&#x20ac;" horiz-adv-x="1232" d="M47 549v92h160q-2 25 -2 76q0 59 2 88h-160v90h170q36 260 176.5 410.5t358.5 150.5q149 0 257.5 -72t161.5 -202l-90 -52q-43 106 -128.5 164t-200.5 58q-168 0 -280 -120t-146 -337h548v-90h-559q-2 -29 -2 -88q0 -51 2 -76h559v-92h-550q32 -222 144.5 -344.5 t283.5 -122.5q115 0 200.5 58t128.5 165l90 -51q-53 -132 -161.5 -204.5t-257.5 -72.5q-221 0 -362 153.5t-175 418.5h-168z" />
<glyph unicode="&#x2122;" horiz-adv-x="978" d="M102 1370v64h310v-64h-121v-346h-68v346h-121zM467 1024v410h68l137 -220l137 220h68v-410h-68v293l-133 -213h-8l-133 213v-293h-68z" />
<glyph unicode="&#x25fc;" horiz-adv-x="1024" d="M0 0v1024h1024v-1024h-1024z" />
<glyph unicode="&#xfb03;" horiz-adv-x="1597" d="M55 924v100h176v55q0 192 106 292t304 85v-98q-155 12 -230 -58t-75 -221v-55h448v76q0 377 410 377q84 0 199 -23v-94q-102 18 -199 18q-160 0 -232.5 -65t-72.5 -213v-76h551v-1024h-103v924h-448v-924h-105v924h-448v-924h-105v924h-176z" />
<glyph unicode="&#xfb04;" horiz-adv-x="1597" d="M55 924v100h176v55q0 192 106 292t304 85v-98q-155 12 -230 -58t-75 -221v-55h448v76q0 377 410 377q108 0 246 -23v-1454h-103v1374q-63 8 -143 8q-159 0 -232 -66.5t-73 -215.5v-76h244v-100h-244v-924h-105v924h-448v-924h-105v924h-176z" />
</font>
</defs>
</svg>
