<?xml version="1.0" standalone="no"?>
<!DOCTYPE svg PUBLIC "-//W3C//DTD SVG 1.1//EN" "http://www.w3.org/Graphics/SVG/1.1/DTD/svg11.dtd" >
<svg xmlns="http://www.w3.org/2000/svg" xmlns:xlink="http://www.w3.org/1999/xlink" version="1.1">
<metadata></metadata>
<defs>
<font id="gilroymedium" horiz-adv-x="1296" >
<font-face units-per-em="2048" ascent="1638" descent="-410" />
<missing-glyph horiz-adv-x="512" />
<glyph unicode="&#xfb01;" horiz-adv-x="1085" d="M49 852v172h164v31q0 203 114 304t335 101q83 0 210 -26v-162q-125 16 -210 16q-139 0 -205 -52t-66 -181v-31h557v-1024h-178v852h-379v-852h-178v852h-164z" />
<glyph unicode="&#xfb02;" horiz-adv-x="1085" d="M49 852v172h164v31q0 203 114 304t335 101q123 0 286 -30v-1430h-178v1296q-74 4 -108 4q-137 0 -204 -57.5t-67 -187.5v-31h213v-172h-213v-852h-178v852h-164z" />
<glyph horiz-adv-x="0" />
<glyph horiz-adv-x="682" />
<glyph unicode=" "  horiz-adv-x="512" />
<glyph unicode="&#x09;" horiz-adv-x="512" />
<glyph unicode="&#xa0;" horiz-adv-x="512" />
<glyph unicode="!" horiz-adv-x="497" d="M115 111q0 55 38.5 94t94.5 39q57 0 95 -38.5t38 -94.5t-38 -95t-95 -39q-55 0 -94 39t-39 95zM141 1024v410h215v-410l-39 -604h-137z" />
<glyph unicode="&#x22;" horiz-adv-x="681" d="M98 1434h178l-24 -430h-129zM406 1434h178l-25 -430h-129z" />
<glyph unicode="#" horiz-adv-x="1239" d="M57 457l25 147h237l37 225h-239l24 150h240l59 352h158l-59 -352h249l60 352h156l-60 -352h238l-25 -150h-237l-37 -225h239l-24 -147h-240l-59 -355h-156l59 355h-249l-60 -355h-157l59 355h-238zM477 604h250l37 225h-250z" />
<glyph unicode="$" horiz-adv-x="1126" d="M72 283l164 94q70 -192 292 -215v495q-51 19 -86 33t-79 36t-73 43.5t-60 52.5t-48.5 65.5t-29 80.5t-11.5 99q0 166 111 270.5t276 120.5v180h129v-182q124 -15 220 -84.5t149 -189.5l-160 -90q-60 150 -209 178v-471q52 -19 86 -32.5t80 -36.5t75.5 -44t62.5 -53 t51 -67t30.5 -82t12.5 -101q0 -167 -111 -276t-287 -130v-182h-129v180q-167 12 -285 92.5t-171 215.5zM330 1067q0 -78 47 -126.5t151 -92.5v424q-90 -12 -144 -66.5t-54 -138.5zM657 166q98 15 152.5 72.5t54.5 142.5t-50.5 135t-156.5 94v-444z" />
<glyph unicode="%" horiz-adv-x="1490" d="M113 1143q0 132 92.5 224.5t230.5 92.5t231 -92t93 -225q0 -134 -91.5 -226t-232.5 -92q-138 0 -230.5 92.5t-92.5 225.5zM209 203l952 1065l101 -56l-955 -1067zM272 1143q0 -71 46.5 -119.5t117.5 -48.5q72 0 118 49t46 119t-46 118t-118 48q-71 0 -117.5 -48 t-46.5 -118zM731 293q0 133 93 225t231 92t230.5 -92t92.5 -225t-92.5 -225.5t-230.5 -92.5t-231 92.5t-93 225.5zM891 293q0 -70 46 -118t118 -48q71 0 117.5 48t46.5 118t-46.5 118t-117.5 48q-72 0 -118 -48t-46 -118z" />
<glyph unicode="&#x26;" horiz-adv-x="1355" d="M113 387q0 131 66.5 240.5t195.5 173.5q-92 118 -92 260q0 119 59.5 211.5t154.5 140t208 47.5q144 0 260 -78t168 -215l-160 -92q-31 94 -101.5 147.5t-162.5 53.5q-99 0 -167.5 -59t-68.5 -154q0 -67 32 -122t95 -122l391 -418q53 108 74 261l164 -95 q-28 -167 -111 -305l191 -203l-160 -92l-145 156q-160 -150 -410 -150q-215 0 -348 112t-133 302zM303 399q0 -114 78 -179.5t217 -65.5q171 0 283 100l-387 416q-67 -28 -111.5 -75t-62 -95.5t-17.5 -100.5z" />
<glyph unicode="'" horiz-adv-x="374" d="M98 1434h178l-24 -430h-129z" />
<glyph unicode="(" horiz-adv-x="573" d="M119 717q0 469 225 921h178q-225 -452 -225 -921q0 -470 225 -922h-178q-225 452 -225 922z" />
<glyph unicode=")" horiz-adv-x="573" d="M51 -205q225 452 225 922q0 469 -225 921h178q226 -454 226 -921q0 -468 -226 -922h-178z" />
<glyph unicode="*" horiz-adv-x="806" d="M119 1118v131l184 -10l-106 152l114 69l92 -168l93 168l116 -69l-108 -152l186 10v-131l-186 8l108 -149l-116 -70l-93 168l-92 -168l-114 70l106 149z" />
<glyph unicode="+" horiz-adv-x="1116" d="M119 633v170h354v354h170v-354h356v-170h-356v-357h-170v357h-354z" />
<glyph unicode="," horiz-adv-x="518" d="M115 -287l82 498h204l-133 -498h-153z" />
<glyph unicode="-" horiz-adv-x="1054" d="M154 543v172h747v-172h-747z" />
<glyph unicode="." horiz-adv-x="497" d="M115 111q0 55 38.5 94t94.5 39q57 0 95 -38.5t38 -94.5t-38 -95t-95 -39q-55 0 -94 39t-39 95z" />
<glyph unicode="/" horiz-adv-x="1081" d="M78 -205l819 1843h107l-820 -1843h-106z" />
<glyph unicode="0" horiz-adv-x="1290" d="M92 717q0 222 63.5 388.5t189.5 260.5t300 94q175 0 300.5 -94t189 -260.5t63.5 -388.5t-63.5 -389t-189 -261t-300.5 -94q-174 0 -300 94t-189.5 261t-63.5 389zM283 717q0 -267 94.5 -412t267.5 -145q174 0 269.5 145.5t95.5 411.5q0 267 -95.5 413t-269.5 146 q-173 0 -267.5 -146t-94.5 -413z" />
<glyph unicode="1" horiz-adv-x="729" d="M29 1303l377 131h163v-1434h-188v1229l-305 -90z" />
<glyph unicode="2" horiz-adv-x="1079" d="M74 0v156l506 516q96 96 149 180t53 168q0 120 -74 188t-180 68q-204 0 -295 -193l-159 95q67 138 187 210t265 72q85 0 164 -29.5t142.5 -83t102 -138.5t38.5 -187q0 -123 -68 -238t-188 -235l-367 -365h649v-184h-925z" />
<glyph unicode="3" horiz-adv-x="1095" d="M57 264l160 94q32 -98 112 -148t199 -50q133 0 217 70t84 194q0 126 -84 196t-217 70h-49l-76 117l332 448h-637v179h860v-168l-311 -420q164 -31 268.5 -141t104.5 -281q0 -106 -40.5 -193t-109 -142.5t-156.5 -85.5t-186 -30q-163 0 -290 75t-181 216z" />
<glyph unicode="4" horiz-adv-x="1187" d="M49 272v179l514 983h205l-514 -983h526v405h191v-405h174v-179h-174v-272h-191v272h-731z" />
<glyph unicode="5" horiz-adv-x="1112" d="M72 281l161 92q29 -104 111 -158.5t201 -54.5q134 0 218.5 70t84.5 194q0 125 -83.5 195.5t-215.5 70.5h-406l54 744h784v-179h-612l-25 -381h209q97 0 183.5 -29.5t153.5 -85t106.5 -142t39.5 -193.5q0 -140 -69.5 -244.5t-179.5 -155.5t-242 -51q-165 0 -293.5 79.5 t-179.5 228.5z" />
<glyph unicode="6" horiz-adv-x="1101" d="M57 457q0 164 86 286l461 691h217l-338 -500q46 4 68 4q216 0 354.5 -134t138.5 -347t-138.5 -348.5t-354.5 -135.5q-217 0 -355.5 135.5t-138.5 348.5zM246 457q0 -136 84.5 -218.5t220.5 -82.5q135 0 220 83t85 218q0 134 -85 216.5t-220 82.5q-136 0 -220.5 -81.5 t-84.5 -217.5z" />
<glyph unicode="7" horiz-adv-x="1003" d="M37 1253v181h895v-170l-522 -1264h-199l518 1253h-692z" />
<glyph unicode="8" horiz-adv-x="1136" d="M78 393q0 115 59 204.5t164 143.5q-82 52 -129 132t-47 182q0 99 37 178t100 127.5t141 74t164 25.5q87 0 165.5 -25.5t141.5 -74t100.5 -127.5t37.5 -178q0 -102 -47 -182t-129 -132q105 -54 164 -143.5t59 -204.5q0 -196 -137.5 -308t-354.5 -112q-215 0 -352 112 t-137 308zM266 406q0 -121 83 -185.5t218 -64.5q137 0 220 64.5t83 185.5q0 119 -83 183t-220 64q-135 0 -218 -64t-83 -183zM313 1051q0 -109 74 -169.5t180 -60.5q107 0 180.5 60.5t73.5 169.5q0 113 -72 170t-182 57q-109 0 -181.5 -57t-72.5 -170z" />
<glyph unicode="9" horiz-adv-x="1101" d="M57 979q0 213 138.5 347t355.5 134t355 -134t138 -347q0 -165 -88 -289h2l-462 -690h-215l340 502q-46 -4 -70 -4q-217 0 -355.5 134t-138.5 347zM246 979q0 -136 84.5 -218.5t220.5 -82.5t220.5 82.5t84.5 218.5t-84.5 217.5t-220.5 81.5t-220.5 -82.5t-84.5 -216.5z " />
<glyph unicode=":" horiz-adv-x="497" d="M115 111q0 55 38.5 94t94.5 39q57 0 95 -38.5t38 -94.5t-38 -95t-95 -39q-55 0 -94 39t-39 95zM115 915q0 56 39 95t94 39q57 0 95 -39t38 -95t-38 -94.5t-95 -38.5q-56 0 -94.5 39t-38.5 94z" />
<glyph unicode=";" horiz-adv-x="524" d="M115 -287l82 498h204l-133 -498h-153zM143 915q0 56 39 95t94 39q57 0 95.5 -39t38.5 -95t-38.5 -94.5t-95.5 -38.5q-56 0 -94.5 39t-38.5 94z" />
<glyph unicode="&#x3c;" horiz-adv-x="1071" d="M113 631v174l845 369v-193l-643 -264l643 -262v-193z" />
<glyph unicode="=" horiz-adv-x="1095" d="M113 424v170h870v-170h-870zM113 840v170h870v-170h-870z" />
<glyph unicode="&#x3e;" horiz-adv-x="1071" d="M113 262v193l643 262l-643 264v193l845 -369v-174z" />
<glyph unicode="?" horiz-adv-x="1103" d="M92 1167q52 144 175 218.5t278 74.5q87 0 165.5 -25t140.5 -72t99 -122t37 -168q0 -64 -21 -121.5t-54 -101t-73.5 -84.5t-80.5 -79.5t-73 -78t-54 -87.5t-21 -101h-190q0 91 39 168.5t94 132t110.5 105.5t94.5 111.5t39 127.5q0 103 -70.5 157t-183.5 54 q-106 0 -182 -50t-107 -149zM381 111q0 55 38.5 94t94.5 39q57 0 95 -38.5t38 -94.5t-38 -95t-95 -39q-55 0 -94 39t-39 95z" />
<glyph unicode="@" horiz-adv-x="1615" d="M78 512q0 203 96.5 372.5t268 269t380.5 99.5q133 0 249.5 -40t201 -109t145.5 -158.5t91 -190t30 -202.5q0 -111 -26 -197.5t-70 -137.5t-97 -77t-112 -26q-91 0 -155.5 44t-88.5 128q-81 -105 -219 -105q-139 0 -230 95t-91 235t91 235t230 95q124 0 207 -90v73h158 v-452q0 -180 129 -180q90 0 148.5 88.5t58.5 271.5q0 178 -86 325t-235 230.5t-329 83.5q-186 0 -341.5 -88t-247 -244.5t-91.5 -347.5q0 -194 93 -349.5t257 -243t367 -87.5q205 0 348 57v-65q-142 -53 -348 -53q-221 0 -399.5 95t-280.5 264.5t-102 381.5zM610 512 q0 -81 54 -131.5t133 -50.5q77 0 129.5 50.5t52.5 131.5t-52.5 131.5t-129.5 50.5q-79 0 -133 -50.5t-54 -131.5z" />
<glyph unicode="A" horiz-adv-x="1316" d="M16 0l535 1434h215l534 -1434h-202l-117 322h-645l-117 -322h-203zM401 500h514l-258 706z" />
<glyph unicode="B" horiz-adv-x="1259" d="M154 0v1434h573q168 0 284.5 -113.5t116.5 -278.5q0 -94 -41 -171t-114 -128q99 -47 157 -135t58 -202q0 -171 -121 -288.5t-295 -117.5h-618zM344 178h428q95 0 161 68t66 166q0 97 -66 164t-161 67h-428v-465zM344 817h383q89 0 151 63.5t62 155.5q0 91 -62 155 t-151 64h-383v-438z" />
<glyph unicode="C" horiz-adv-x="1513" d="M78 717q0 154 56 290.5t153.5 236.5t238 158t301.5 58q196 0 361.5 -94t257.5 -254l-166 -96q-62 119 -184 189.5t-269 70.5q-165 0 -293.5 -74t-198 -201t-69.5 -284q0 -238 156.5 -397.5t404.5 -159.5q147 0 269 70t184 188l166 -94q-90 -160 -256 -255.5t-363 -95.5 q-214 0 -386.5 100t-267.5 269.5t-95 374.5z" />
<glyph unicode="D" horiz-adv-x="1470" d="M154 0v1434h559q145 0 272.5 -56.5t216.5 -153t140 -228.5t51 -279t-51 -279t-140 -228.5t-216.5 -153t-272.5 -56.5h-559zM344 180h369q145 0 259 71t176 193t62 273t-62 273t-176 192.5t-259 70.5h-369v-1073z" />
<glyph unicode="E" horiz-adv-x="1085" d="M154 0v1434h845v-181h-655v-440h604v-178h-604v-455h666v-180h-856z" />
<glyph unicode="F" horiz-adv-x="1056" d="M154 0v1434h825v-181h-635v-465h608v-180h-608v-608h-190z" />
<glyph unicode="G" horiz-adv-x="1613" d="M78 717q0 204 96 374t268.5 269.5t386.5 99.5q198 0 364 -94.5t257 -251.5l-164 -96q-62 117 -185.5 187.5t-273.5 70.5q-163 0 -292 -74.5t-199 -201.5t-70 -283q0 -237 159 -397t411 -160q215 0 348 105.5t162 273.5h-527v172h717v-86q0 -136 -49.5 -255.5t-139 -207.5 t-222 -138.5t-291.5 -50.5q-162 0 -304 59t-240.5 159t-155 237t-56.5 289z" />
<glyph unicode="H" horiz-adv-x="1382" d="M154 0v1434h190v-609h696v609h189v-1434h-189v645h-696v-645h-190z" />
<glyph unicode="I" horiz-adv-x="497" d="M154 0v1434h190v-1434h-190z" />
<glyph unicode="J" horiz-adv-x="1142" d="M78 229l162 95q64 -164 286 -164q137 0 215 65t78 195v1014h189v-1014q0 -109 -38 -195.5t-105 -140.5t-153 -82.5t-186 -28.5q-156 0 -274 65.5t-174 190.5z" />
<glyph unicode="K" horiz-adv-x="1212" d="M154 0v1434h190v-648l598 648h234l-633 -697l653 -737h-233l-619 688v-688h-190z" />
<glyph unicode="L" horiz-adv-x="999" d="M154 0v1434h190v-1254h619v-180h-809z" />
<glyph unicode="M" horiz-adv-x="1648" d="M154 0v1434h215l456 -758l455 758h215v-1434h-188v1120l-469 -780h-25l-469 778v-1118h-190z" />
<glyph unicode="N" horiz-adv-x="1388" d="M154 0v1434h153l737 -1069v1069h191v-1434h-154l-737 1071v-1071h-190z" />
<glyph unicode="O" horiz-adv-x="1638" d="M78 717q0 153 57.5 290.5t156.5 236.5t236.5 157.5t290.5 58.5t291 -58.5t237.5 -157.5t157.5 -236.5t58 -290.5q0 -203 -98.5 -374t-270 -270.5t-375.5 -99.5q-153 0 -290.5 58.5t-236 158.5t-156.5 237.5t-58 289.5zM266 717q0 -235 159.5 -396t393.5 -161t393.5 161 t159.5 396q0 155 -72.5 283.5t-199.5 202t-281 73.5t-281 -73.5t-199.5 -202t-72.5 -283.5z" />
<glyph unicode="P" horiz-adv-x="1208" d="M154 0v1434h520q198 0 330.5 -132t132.5 -329q0 -195 -132.5 -328t-330.5 -133h-330v-512h-190zM344 690h330q118 0 196 80.5t78 202.5q0 123 -77.5 202.5t-196.5 79.5h-330v-565z" />
<glyph unicode="Q" horiz-adv-x="1648" d="M78 717q0 152 58.5 290t158 237t236.5 157.5t288 58.5q202 0 373 -98.5t271 -270t100 -374.5q0 -146 -53.5 -277t-149.5 -233l158 -158l-132 -119l-161 164q-186 -121 -406 -121q-151 0 -288.5 59t-236.5 158.5t-157.5 237t-58.5 289.5zM266 717q0 -154 74 -282 t201 -201.5t278 -73.5q148 0 271 69l-287 289l131 117l295 -295q143 156 143 377q0 155 -74 283.5t-201 202t-278 73.5t-278 -73.5t-201 -202t-74 -283.5z" />
<glyph unicode="R" horiz-adv-x="1251" d="M154 0v1434h573q185 0 316 -130.5t131 -314.5q0 -140 -83.5 -255t-213.5 -161l337 -573h-210l-322 549h-338v-549h-190zM344 721h383q106 0 181 79t75 189t-75 188t-181 78h-383v-534z" />
<glyph unicode="S" horiz-adv-x="1183" d="M74 326l164 94q40 -123 135.5 -191.5t247.5 -68.5q148 0 225.5 60.5t77.5 160.5q0 43 -16 77.5t-41 59t-72.5 47.5t-91 39t-117.5 39q-91 29 -137.5 46t-117.5 53.5t-106 74.5t-62.5 99.5t-27.5 138.5q0 125 63 218.5t164.5 140t223.5 46.5q170 0 296 -86t189 -227 l-160 -92q-92 221 -325 221q-117 0 -188.5 -58t-71.5 -155q0 -49 17.5 -85t59 -64.5t91.5 -49.5t133 -47q195 -64 272 -105q161 -84 199 -220q14 -49 14 -107q0 -187 -137 -299.5t-359 -112.5q-201 0 -342.5 94.5t-199.5 258.5z" />
<glyph unicode="T" horiz-adv-x="1105" d="M37 1253v181h1034v-181h-424v-1253h-188v1253h-422z" />
<glyph unicode="U" horiz-adv-x="1347" d="M135 481v953h191v-945q0 -153 90 -241t258 -88t258 88t90 241v945h188v-953q0 -231 -149.5 -369.5t-386.5 -138.5q-238 0 -388.5 139t-150.5 369z" />
<glyph unicode="V" horiz-adv-x="1271" d="M16 1434h205l416 -1196l414 1196h206l-514 -1434h-215z" />
<glyph unicode="W" horiz-adv-x="2048" d="M51 1434h201l328 -1180l348 1180h192l348 -1180l328 1180h201l-412 -1434h-221l-340 1145l-340 -1145h-221z" />
<glyph unicode="X" horiz-adv-x="1208" d="M37 0l461 737l-435 697h216l325 -523l326 523h215l-432 -695l461 -739h-218l-352 565l-352 -565h-215z" />
<glyph unicode="Y" horiz-adv-x="1236" d="M16 1434h213l389 -672l390 672h213l-508 -854v-580h-191v582z" />
<glyph unicode="Z" horiz-adv-x="1075" d="M80 0v166l692 1087h-674v181h901v-164l-694 -1090h711v-180h-936z" />
<glyph unicode="[" horiz-adv-x="593" d="M119 -205v1843h434v-172h-256v-1499h256v-172h-434z" />
<glyph unicode="\" horiz-adv-x="1081" d="M78 1638h106l820 -1843h-107z" />
<glyph unicode="]" horiz-adv-x="593" d="M41 -33h256v1499h-256v172h434v-1843h-434v172z" />
<glyph unicode="^" horiz-adv-x="1064" d="M82 799l371 635h159l371 -635h-201l-250 434l-249 -434h-201z" />
<glyph unicode="_" horiz-adv-x="1064" d="M78 -137h911v-172h-911v172z" />
<glyph unicode="`" horiz-adv-x="460" d="M41 1434l207 -271h172l-164 271h-215z" />
<glyph unicode="a" d="M78 512q0 149 69.5 273t188.5 195t260 71q127 0 225.5 -53.5t161.5 -149.5v176h178v-1024h-178v176q-63 -96 -161.5 -149.5t-225.5 -53.5q-141 0 -260 71t-188.5 195t-69.5 273zM256 512q0 -157 104 -262t258 -105q155 0 260 105t105 262t-105 262t-260 105 q-154 0 -258 -105t-104 -262z" />
<glyph unicode="b" d="M135 0v1434h178v-586q63 96 161.5 149.5t225.5 53.5q141 0 260 -71t189 -195t70 -273t-70 -273t-189 -195t-260 -71q-127 0 -225.5 53.5t-161.5 149.5v-176h-178zM313 512q0 -157 105 -262t260 -105q154 0 258 105t104 262t-104 262t-258 105q-155 0 -260 -105t-105 -262 z" />
<glyph unicode="c" horiz-adv-x="1120" d="M78 512q0 150 69.5 273.5t193 194.5t275.5 71q151 0 272.5 -73t180.5 -196l-149 -86q-39 82 -120.5 131.5t-183.5 49.5q-154 0 -257 -105t-103 -260q0 -154 103 -258t257 -104q102 0 184 48.5t126 129.5l151 -88q-65 -122 -188.5 -194.5t-272.5 -72.5q-152 0 -275.5 71 t-193 194.5t-69.5 273.5z" />
<glyph unicode="d" d="M78 512q0 149 69.5 273t188.5 195t260 71q127 0 225.5 -53.5t161.5 -149.5v586h178v-1434h-178v176q-63 -96 -161.5 -149.5t-225.5 -53.5q-141 0 -260 71t-188.5 195t-69.5 273zM256 512q0 -157 104 -262t258 -105q155 0 260 105t105 262t-105 262t-260 105 q-154 0 -258 -105t-104 -262z" />
<glyph unicode="e" horiz-adv-x="1193" d="M78 512q0 230 150 384.5t386 154.5q150 0 268 -75.5t180 -198.5t62 -267q0 -40 -6 -80h-858q26 -136 126 -212.5t245 -76.5q101 0 177.5 41.5t117.5 108.5l151 -86q-70 -108 -185.5 -170t-264.5 -62q-244 0 -396.5 153t-152.5 386zM260 586h684q-22 145 -114.5 221 t-215.5 76q-143 0 -237.5 -81t-116.5 -216z" />
<glyph unicode="f" horiz-adv-x="661" d="M49 852v172h164v31q0 206 116 313q102 94 281 94q25 0 52 -2v-172q-22 2 -43 2q-104 0 -161 -48q-67 -56 -67 -187v-31h271v-172h-271v-852h-178v852h-164z" />
<glyph unicode="g" d="M78 518q0 146 69.5 268.5t189.5 193.5t263 71q126 0 224 -53.5t161 -149.5v176h176v-981q0 -116 -44 -209t-117.5 -151t-166 -88.5t-194.5 -30.5q-172 0 -297 64.5t-188 185.5l155 88q26 -52 63 -88t106 -60t165 -24q159 0 250.5 84t91.5 229v145q-63 -97 -161 -150.5 t-224 -53.5q-218 0 -370 155t-152 379zM256 518q0 -155 105 -259.5t260 -104.5t259.5 104.5t104.5 259.5q0 154 -104.5 258.5t-259.5 104.5t-260 -104.5t-105 -258.5z" />
<glyph unicode="h" horiz-adv-x="1155" d="M135 0v1434h178v-557q109 174 332 174q181 0 289 -113.5t108 -308.5v-629h-178v618q0 125 -67.5 194t-186.5 69q-132 0 -214.5 -83t-82.5 -255v-543h-178z" />
<glyph unicode="i" horiz-adv-x="450" d="M104 1329q0 50 35 85.5t86 35.5q49 0 84 -35.5t35 -85.5q0 -49 -35 -84t-84 -35q-51 0 -86 34.5t-35 84.5zM135 0v1024h178v-1024h-178z" />
<glyph unicode="j" horiz-adv-x="493" d="M-37 -264q18 -1 34 -1q86 0 131 39q52 47 52 165v1085h178v-1085q0 -198 -100 -293q-88 -84 -247 -84q-23 0 -48 2v172zM150 1329q0 50 34.5 85.5t85.5 35.5q49 0 84 -35.5t35 -85.5q0 -49 -34.5 -84t-84.5 -35q-51 0 -85.5 34.5t-34.5 84.5z" />
<glyph unicode="k" horiz-adv-x="1032" d="M135 0v1434h178v-863l443 453h229l-489 -496l505 -528h-221l-467 485v-485h-178z" />
<glyph unicode="l" horiz-adv-x="450" d="M135 0v1495h178v-1495h-178z" />
<glyph unicode="m" horiz-adv-x="1738" d="M135 0v1024h178v-137q106 164 305 164q103 0 180 -45t122 -129q53 86 136 130t185 44q172 0 278.5 -112t106.5 -302v-637h-178v631q0 119 -61 184.5t-164 65.5q-114 0 -183 -77t-69 -235v-569h-178v631q0 120 -58.5 185t-159.5 65q-112 0 -187 -78t-75 -234v-569h-178z " />
<glyph unicode="n" horiz-adv-x="1155" d="M135 0v1024h178v-147q109 174 332 174q181 0 289 -113.5t108 -308.5v-629h-178v618q0 125 -67.5 194t-186.5 69q-132 0 -214.5 -83t-82.5 -255v-543h-178z" />
<glyph unicode="o" horiz-adv-x="1232" d="M78 512q0 149 71.5 273t195.5 195t271 71t271.5 -71t197 -195t72.5 -273t-72.5 -273t-197 -195t-271.5 -71t-271 71t-195.5 195t-71.5 273zM256 512q0 -155 104 -260t256 -105q154 0 258.5 105t104.5 260t-104.5 260t-258.5 105q-152 0 -256 -105t-104 -260z" />
<glyph unicode="p" d="M135 -410v1434h178v-176q63 96 161.5 149.5t225.5 53.5q141 0 260 -71t189 -195t70 -273t-70 -273t-189 -195t-260 -71q-127 0 -225.5 53.5t-161.5 149.5v-586h-178zM313 512q0 -157 105 -262t260 -105q154 0 258 105t104 262t-104 262t-258 105q-155 0 -260 -105 t-105 -262z" />
<glyph unicode="q" d="M78 512q0 149 69.5 273t188.5 195t260 71q127 0 225.5 -53.5t161.5 -149.5v176h178v-1434h-178v586q-63 -96 -161.5 -149.5t-225.5 -53.5q-141 0 -260 71t-188.5 195t-69.5 273zM256 512q0 -157 104 -262t258 -105q155 0 260 105t105 262t-105 262t-260 105 q-154 0 -258 -105t-104 -262z" />
<glyph unicode="r" horiz-adv-x="671" d="M135 0v1024h178v-172q88 190 320 190v-186h-14q-53 0 -101 -13q-54 -15 -101.5 -49.5t-75.5 -99t-28 -151.5v-543h-178z" />
<glyph unicode="s" horiz-adv-x="937" d="M72 213l153 88q25 -74 92.5 -117t161.5 -43q89 0 146 34.5t57 105.5q0 39 -24.5 67.5t-65 45t-92 33t-105 29.5t-105 37t-92 54t-65 81t-24.5 117q0 134 103 220t259 86q125 0 222 -56.5t147 -156.5l-150 -84q-28 66 -87.5 98.5t-131.5 32.5q-75 0 -128.5 -36t-53.5 -101 q0 -39 24.5 -67.5t65 -44.5t92 -32.5t105 -29.5t105 -37t92 -54.5t65 -82.5t24.5 -119q0 -140 -108 -224t-275 -84q-149 0 -255 65.5t-152 174.5z" />
<glyph unicode="t" horiz-adv-x="774" d="M39 852v172h203v233l178 54v-287h272v-172h-272v-555q0 -75 30 -107q30 -30 90 -32q16 0 36 -1q50 0 116 3v-160q-72 -10 -132 -10q-134 0 -210 48q-108 69 -108 259v555h-203z" />
<glyph unicode="u" horiz-adv-x="1155" d="M113 395v629h178v-618q0 -125 67.5 -194t186.5 -69q132 0 214.5 83t82.5 255v543h178v-1024h-178v147q-109 -174 -332 -174q-181 0 -289 113.5t-108 308.5z" />
<glyph unicode="v" horiz-adv-x="1060" d="M16 1024h193l321 -834l322 834h192l-409 -1024h-209z" />
<glyph unicode="w" horiz-adv-x="1576" d="M49 1024h187l225 -778l241 778h172l242 -780l225 780h187l-318 -1024h-182l-240 758l-239 -758h-182z" />
<glyph unicode="x" horiz-adv-x="1054" d="M31 0l393 526l-371 498h211l264 -356l265 356h208l-368 -496l391 -528h-209l-287 387l-288 -387h-209z" />
<glyph unicode="y" horiz-adv-x="1054" d="M16 1024h191l348 -803l295 803h190l-417 -1087q-65 -174 -183 -265q-105 -83 -242 -83q-15 0 -30 1v166q11 -1 22 -1q172 0 254 210l19 39z" />
<glyph unicode="z" horiz-adv-x="964" d="M98 0v119l523 735h-502v170h747v-119l-524 -735h545v-170h-789z" />
<glyph unicode="{" horiz-adv-x="729" d="M102 633v172q104 -2 150.5 32.5t46.5 143.5v330q0 378 389 348v-172q-112 11 -161.5 -25.5t-49.5 -150.5v-330q0 -109 -37 -171t-110 -91q73 -27 110 -90t37 -172v-330q0 -112 50 -149.5t161 -26.5v-172q-192 -15 -290.5 73t-98.5 275v330q0 110 -46 144t-151 32z" />
<glyph unicode="|" horiz-adv-x="485" d="M154 -410v1885h178v-1885h-178z" />
<glyph unicode="}" horiz-adv-x="729" d="M41 -49q111 -11 161 26.5t50 149.5v330q0 109 37 172t110 90q-73 29 -110 91t-37 171v330q0 114 -49.5 150.5t-161.5 25.5v172q389 30 389 -348v-330q0 -109 46.5 -143.5t150.5 -32.5v-172q-105 2 -151 -32t-46 -144v-330q0 -187 -98.5 -275t-290.5 -73v172z" />
<glyph unicode="~" horiz-adv-x="1220" d="M113 637q53 183 187 229t327 -63q104 -60 169 -69.5t99.5 23t58.5 111.5l154 -73q-54 -184 -186 -229t-330 65q-102 58 -167 67t-100 -23.5t-59 -109.5z" />
<glyph unicode="&#xa1;" horiz-adv-x="497" d="M115 913q0 56 39 95t94 39q57 0 95 -39t38 -95t-38 -94.5t-95 -38.5q-56 0 -94.5 39t-38.5 94zM141 0l39 604h137l39 -604v-410h-215v410z" />
<glyph unicode="&#xa2;" horiz-adv-x="1120" d="M78 717q0 150 69.5 273t193 194t275.5 71q55 0 99 -8l59 187h109l-70 -215q176 -66 256 -232l-149 -86q-51 105 -160 152l-223 -691q36 -8 79 -8q102 0 184 48.5t126 129.5l151 -88q-65 -121 -188.5 -193.5t-272.5 -72.5q-63 0 -133 17l-63 -195h-109l74 227 q-141 64 -224 195t-83 295zM256 717q0 -104 49.5 -189t134.5 -131l219 682q-14 2 -43 2q-154 0 -257 -104.5t-103 -259.5z" />
<glyph unicode="&#xa3;" horiz-adv-x="1196" d="M78 0v184h178v398h-143v168h143v274q0 108 37 193.5t99 137t137.5 78.5t156.5 27q145 0 249.5 -74.5t158.5 -207.5l-158 -91q-68 189 -248 189q-104 0 -174 -64.5t-70 -191.5v-270h455v-168h-455v-398h723v-184h-1089z" />
<glyph unicode="&#xa4;" horiz-adv-x="1124" d="M78 301l141 143q-94 118 -94 273q0 154 94 272l-141 144l69 69l144 -143q119 92 272 92q152 0 271 -92l145 143l70 -69l-144 -144q94 -118 94 -272q0 -155 -94 -273l144 -143l-70 -70l-145 146q-115 -92 -271 -92q-152 0 -272 90l-144 -144zM303 717q0 -111 74 -186.5 t186 -75.5q110 0 185 76t75 186q0 112 -74.5 187t-185.5 75q-112 0 -186 -74.5t-74 -187.5z" />
<glyph unicode="&#xa5;" horiz-adv-x="1196" d="M16 1434h213l389 -672l390 672h213l-424 -713h252v-133h-330l-6 -8v-105h336v-135h-336v-340h-191v340h-375v135h375v107l-4 6h-371v133h293z" />
<glyph unicode="&#xa6;" horiz-adv-x="485" d="M154 348h178v-758h-178v758zM154 717v758h178v-758h-178z" />
<glyph unicode="&#xa7;" horiz-adv-x="1067" d="M115 684q0 155 139 256q-76 82 -76 205q0 138 104 226.5t261 88.5q133 0 233.5 -65.5t149.5 -184.5l-146 -82q-34 84 -96 125t-141 41q-78 0 -132.5 -39.5t-54.5 -109.5q0 -38 20 -70t62 -59t81.5 -46.5t104.5 -47.5q26 -11 40 -17q56 -24 96 -45t86 -53.5t74.5 -67 t47.5 -83.5t19 -105q0 -76 -34 -142t-95 -112q84 -87 84 -209q0 -141 -106.5 -229t-276.5 -88q-164 0 -274 69t-162 199l153 88q64 -193 283 -193q92 0 148.5 40.5t56.5 113.5q0 19 -5.5 37t-18 34t-25 29t-36 28t-40 24.5t-48 24t-49.5 22t-54.5 23t-53.5 22.5 q-69 28 -119 56.5t-99 70t-75 98.5t-26 127zM293 690q0 -75 56.5 -123.5t158.5 -87.5q168 -63 219 -90q82 61 82 152q0 77 -57.5 125t-165.5 92q-17 7 -50.5 19.5t-54 21t-49 21t-51.5 24.5q-88 -58 -88 -154z" />
<glyph unicode="&#xa8;" horiz-adv-x="686" d="M41 1268q0 44 32 75t77 31q44 0 75 -31t31 -75q0 -45 -31 -77t-75 -32t-76.5 32.5t-32.5 76.5zM430 1268q0 44 32 75t77 31q44 0 75 -31t31 -75q0 -45 -31 -77t-75 -32t-76.5 32.5t-32.5 76.5z" />
<glyph unicode="&#xa9;" horiz-adv-x="1636" d="M78 717q0 151 58.5 288.5t157.5 236.5t236.5 157.5t288.5 58.5q202 0 372.5 -99t270 -269.5t99.5 -372.5t-99.5 -372.5t-270 -270t-372.5 -99.5t-372.5 99.5t-269.5 270t-99 372.5zM143 717q0 -139 53.5 -265t144 -217t216 -144.5t262.5 -53.5t261.5 53.5t215 144.5 t144 217t53.5 265t-53.5 265t-144 217t-215 144.5t-261.5 53.5t-262.5 -53.5t-216 -144.5t-144 -217t-53.5 -265zM424 717q0 164 117 279.5t284 115.5q108 0 198 -51.5t140 -140.5l-141 -82q-25 55 -79 84.5t-120 29.5q-105 0 -169 -70t-64 -165t64.5 -165.5t168.5 -70.5 q66 0 120.5 30.5t80.5 86.5l141 -84q-50 -88 -141 -140t-199 -52q-167 0 -284 115.5t-117 279.5z" />
<glyph unicode="&#xab;" horiz-adv-x="1044" d="M139 633l226 375h192l-225 -375l225 -373h-192zM487 633l226 375h192l-225 -375l225 -373h-192z" />
<glyph unicode="&#xac;" horiz-adv-x="1085" d="M113 633v170h860v-410h-178v240h-682z" />
<glyph unicode="&#xad;" horiz-adv-x="1054" d="M154 543v172h747v-172h-747z" />
<glyph unicode="&#xae;" horiz-adv-x="1636" d="M78 717q0 151 58.5 288.5t157.5 236.5t236.5 157.5t288.5 58.5q202 0 372.5 -99t270 -269.5t99.5 -372.5t-99.5 -372.5t-270 -270t-372.5 -99.5t-372.5 99.5t-269.5 270t-99 372.5zM143 717q0 -139 53.5 -265t144 -217t216 -144.5t262.5 -53.5t261.5 53.5t215 144.5 t144 217t53.5 265t-53.5 265t-144 217t-215 144.5t-261.5 53.5t-262.5 -53.5t-216 -144.5t-144 -217t-53.5 -265zM575 338v758h256q132 0 210.5 -70.5t78.5 -175.5q0 -160 -129 -223l158 -289h-172l-133 256h-13h-98v-256h-158zM733 737h98q62 0 97 29t35 76 q0 51 -34.5 78.5t-97.5 27.5h-98v-211z" />
<glyph unicode="&#xaf;" horiz-adv-x="634" d="M41 1178v149h553v-149h-553z" />
<glyph unicode="&#xb0;" horiz-adv-x="800" d="M78 1341q0 133 92.5 225.5t230.5 92.5t231 -92.5t93 -225.5t-92 -225t-232 -92q-138 0 -230.5 92.5t-92.5 224.5zM240 1341q0 -70 45 -116.5t116 -46.5t116.5 46.5t45.5 116.5t-45.5 117t-116.5 47t-116 -47t-45 -117z" />
<glyph unicode="&#xb1;" horiz-adv-x="1116" d="M119 160v170h880v-170h-880zM119 782v170h354v324h170v-324h356v-170h-356v-321h-170v321h-354z" />
<glyph unicode="&#xb4;" horiz-adv-x="460" d="M41 1163h172l207 271h-215z" />
<glyph unicode="&#xb5;" horiz-adv-x="1249" d="M135 -410v1434h178v-616q0 -127 67.5 -196t186.5 -69q132 0 214.5 83t82.5 255v543h178v-782q0 -33 19.5 -52.5t52.5 -19.5h78v-170h-105q-77 0 -130.5 36t-77.5 101q-107 -164 -326 -164q-147 0 -240 80v-463h-178z" />
<glyph unicode="&#xb6;" horiz-adv-x="1249" d="M72 1014q0 175 122.5 297.5t297.5 122.5h671v-162h-125v-1682h-170v1682h-206v-1682h-170v1004q-174 0 -297 123t-123 297z" />
<glyph unicode="&#xb7;" horiz-adv-x="497" d="M115 715q0 55 38.5 94t94.5 39q57 0 95 -38.5t38 -94.5t-38 -94.5t-95 -38.5q-56 0 -94.5 39t-38.5 94z" />
<glyph unicode="&#xb8;" horiz-adv-x="512" d="M41 -307q135 -10 204.5 7t69.5 56q0 35 -43 52t-127 22v170h152v-92q78 -16 126 -59t48 -105q0 -211 -430 -186v135z" />
<glyph unicode="&#xbb;" horiz-adv-x="1044" d="M139 260l226 373l-226 375h193l225 -375l-225 -373h-193zM487 260l226 373l-226 375h193l225 -375l-225 -373h-193z" />
<glyph unicode="&#xbc;" horiz-adv-x="1677" d="M16 1348l240 86h137v-820h-157v654l-181 -54zM254 0l819 1434h144l-820 -1434h-143zM979 145v146l291 528h170l-287 -528h233v180h156v-180h96v-146h-96v-145h-156v145h-407z" />
<glyph unicode="&#xbd;" horiz-adv-x="1656" d="M16 1348l240 86h137v-820h-157v654l-181 -54zM254 0l819 1434h144l-820 -1434h-143zM1004 651q39 93 113.5 144t178.5 51q126 0 205.5 -72.5t79.5 -181.5q0 -137 -131 -258l-207 -187h352v-147h-585v117l331 313q80 74 80 158q0 50 -33.5 79t-91.5 29q-112 0 -161 -118z " />
<glyph unicode="&#xbe;" horiz-adv-x="1875" d="M41 764l133 76q45 -105 168 -105q71 0 109 32.5t38 88.5t-41 89.5t-108 33.5h-18l-70 102l172 205h-352v148h538v-136l-172 -204q98 -20 153.5 -83t55.5 -155q0 -123 -83.5 -195.5t-221.5 -72.5q-220 0 -301 176zM453 0l819 1434h143l-819 -1434h-143zM1178 145v146 l290 528h170l-286 -528h233v180h156v-180h96v-146h-96v-145h-156v145h-407z" />
<glyph unicode="&#xbf;" horiz-adv-x="1103" d="M117 -49q0 64 21 121.5t54 101t73 84.5t80.5 79.5t73.5 78t54 87.5t21 101h190q0 -91 -39 -168.5t-94 -132t-110.5 -105.5t-94.5 -111.5t-39 -127.5q0 -103 70.5 -157t183.5 -54q106 0 182 50t107 149l162 -90q-52 -144 -175 -218.5t-278 -74.5q-87 0 -165.5 25 t-140.5 72t-99 122t-37 168zM457 913q0 56 38 95t95 39q55 0 94 -39t39 -95q0 -55 -38.5 -94t-94.5 -39q-57 0 -95 38.5t-38 94.5z" />
<glyph unicode="&#xc0;" horiz-adv-x="1316" d="M16 0l535 1434h215l534 -1434h-202l-117 322h-645l-117 -322h-203zM401 500h514l-258 706zM416 1843h215l164 -270h-172z" />
<glyph unicode="&#xc1;" horiz-adv-x="1316" d="M16 0l535 1434h215l534 -1434h-202l-117 322h-645l-117 -322h-203zM401 500h514l-258 706zM535 1573l163 270h215l-206 -270h-172z" />
<glyph unicode="&#xc2;" horiz-adv-x="1316" d="M16 0l535 1434h215l534 -1434h-202l-117 322h-645l-117 -322h-203zM340 1567l217 276h197l217 -276h-191l-125 166l-125 -166h-190zM401 500h514l-258 706z" />
<glyph unicode="&#xc3;" horiz-adv-x="1316" d="M16 0l535 1434h215l534 -1434h-202l-117 322h-645l-117 -322h-203zM350 1583q0 100 28 163t73.5 83.5t101 9.5t113.5 -53q34 -24 54 -36.5t40 -18.5t30.5 3.5t16.5 33t6 65.5h150q0 -80 -18 -137t-49 -85t-71.5 -34.5t-85.5 8t-92 47.5q-33 24 -53.5 36.5t-40 18 t-30 -3.5t-17 -33.5t-6.5 -66.5h-150zM401 500h514l-258 706z" />
<glyph unicode="&#xc4;" horiz-adv-x="1316" d="M16 0l535 1434h215l534 -1434h-202l-117 322h-645l-117 -322h-203zM354 1677q0 44 32.5 75.5t76.5 31.5t75 -31.5t31 -75.5t-31 -76t-75 -32t-76.5 32t-32.5 76zM401 500h514l-258 706zM743 1677q0 44 32.5 75.5t76.5 31.5t75 -31.5t31 -75.5t-31 -76t-75 -32t-76.5 32 t-32.5 76z" />
<glyph unicode="&#xc5;" horiz-adv-x="1316" d="M16 0l514 1378q-48 28 -75 76.5t-27 108.5q0 93 64.5 155t166.5 62q103 0 167.5 -61.5t64.5 -155.5q0 -60 -28 -109.5t-77 -77.5l514 -1376h-202l-117 322h-645l-117 -322h-203zM401 500h514l-258 706zM563 1563q0 -41 26 -68t70 -27q48 0 73.5 26.5t25.5 68.5 q0 40 -25.5 66t-73.5 26q-44 0 -70 -26t-26 -66z" />
<glyph unicode="&#xc6;" horiz-adv-x="1802" d="M0 0l868 1434h848v-181h-608v-440h571v-178h-571v-455h618v-180h-804v322h-512l-195 -322h-215zM516 500h406v671z" />
<glyph unicode="&#xc7;" horiz-adv-x="1513" d="M78 717q0 154 56 290.5t153.5 236.5t238 158t301.5 58q196 0 361.5 -94t257.5 -254l-166 -96q-62 119 -184 189.5t-269 70.5q-165 0 -293.5 -74t-198 -201t-69.5 -284q0 -238 156.5 -397.5t404.5 -159.5q147 0 269 70t184 188l166 -94q-80 -144 -224.5 -237t-318.5 -110 v-69q78 -16 126 -59t48 -105q0 -211 -430 -186v135q135 -10 205 7t70 56q0 35 -43 52t-127 22v147q-195 17 -349.5 120t-239.5 265.5t-85 354.5z" />
<glyph unicode="&#xc8;" horiz-adv-x="1085" d="M154 0v1434h845v-181h-655v-440h604v-178h-604v-455h666v-180h-856zM336 1843h215l164 -270h-172z" />
<glyph unicode="&#xc9;" horiz-adv-x="1085" d="M154 0v1434h845v-181h-655v-440h604v-178h-604v-455h666v-180h-856zM455 1573l163 270h216l-207 -270h-172z" />
<glyph unicode="&#xca;" horiz-adv-x="1085" d="M154 0v1434h845v-181h-655v-440h604v-178h-604v-455h666v-180h-856zM260 1567l217 276h197l217 -276h-191l-125 166l-124 -166h-191z" />
<glyph unicode="&#xcb;" horiz-adv-x="1085" d="M154 0v1434h845v-181h-655v-440h604v-178h-604v-455h666v-180h-856zM274 1677q0 44 32.5 75.5t76.5 31.5t75 -31.5t31 -75.5t-31 -76t-75 -32t-76.5 32t-32.5 76zM664 1677q0 44 32 75.5t76 31.5t75.5 -31.5t31.5 -75.5t-31.5 -76t-75.5 -32t-76 32t-32 76z" />
<glyph unicode="&#xcc;" horiz-adv-x="497" d="M6 1843l207 -270h172l-164 270h-215zM154 0v1434h190v-1434h-190z" />
<glyph unicode="&#xcd;" horiz-adv-x="497" d="M125 1573h172l207 270h-215zM154 0v1434h190v-1434h-190z" />
<glyph unicode="&#xce;" horiz-adv-x="497" d="M-70 1567l217 276h197l217 -276h-190l-125 166l-125 -166h-191zM154 0v1434h190v-1434h-190z" />
<glyph unicode="&#xcf;" horiz-adv-x="497" d="M-55 1677q0 44 32 75.5t76 31.5t75.5 -31.5t31.5 -75.5t-31.5 -76t-75.5 -32t-76 32t-32 76zM154 0v1434h190v-1434h-190zM334 1677q0 44 32 75.5t76 31.5t75.5 -31.5t31.5 -75.5t-31.5 -76t-75.5 -32t-76 32t-32 76z" />
<glyph unicode="&#xd0;" horiz-adv-x="1521" d="M55 627v172h150v635h559q145 0 272.5 -56.5t216.5 -153t140 -228.5t51 -279t-51 -279t-140 -228.5t-216.5 -153t-272.5 -56.5h-559v627h-150zM395 180h369q145 0 259 71t176.5 193t62.5 273t-62.5 273t-176.5 192.5t-259 70.5h-369v-454h408v-172h-408v-447z" />
<glyph unicode="&#xd1;" horiz-adv-x="1388" d="M154 0v1434h153l737 -1069v1069h191v-1434h-154l-737 1071v-1071h-190zM381 1583q0 80 18 137t49 85.5t71.5 35.5t85.5 -7.5t91 -47.5q34 -24 54.5 -36.5t40.5 -18.5t30 3.5t16.5 33t6.5 65.5h149q0 -80 -18 -137t-48.5 -85t-71 -34.5t-85.5 8t-92 47.5 q-33 24 -53.5 36.5t-40.5 18t-30.5 -3.5t-17 -33.5t-6.5 -66.5h-149z" />
<glyph unicode="&#xd2;" horiz-adv-x="1638" d="M78 717q0 153 57.5 290.5t156.5 236.5t236.5 157.5t290.5 58.5t291 -58.5t237.5 -157.5t157.5 -236.5t58 -290.5q0 -203 -98.5 -374t-270 -270.5t-375.5 -99.5q-153 0 -290.5 58.5t-236 158.5t-156.5 237.5t-58 289.5zM266 717q0 -235 159.5 -396t393.5 -161t393.5 161 t159.5 396q0 155 -72.5 283.5t-199.5 202t-281 73.5t-281 -73.5t-199.5 -202t-72.5 -283.5zM578 1849l206 -270h172l-163 270h-215z" />
<glyph unicode="&#xd3;" horiz-adv-x="1638" d="M78 717q0 153 57.5 290.5t156.5 236.5t236.5 157.5t290.5 58.5t291 -58.5t237.5 -157.5t157.5 -236.5t58 -290.5q0 -203 -98.5 -374t-270 -270.5t-375.5 -99.5q-153 0 -290.5 58.5t-236 158.5t-156.5 237.5t-58 289.5zM266 717q0 -235 159.5 -396t393.5 -161t393.5 161 t159.5 396q0 155 -72.5 283.5t-199.5 202t-281 73.5t-281 -73.5t-199.5 -202t-72.5 -283.5zM696 1579h172l207 270h-215z" />
<glyph unicode="&#xd4;" horiz-adv-x="1638" d="M78 717q0 153 57.5 290.5t156.5 236.5t236.5 157.5t290.5 58.5t291 -58.5t237.5 -157.5t157.5 -236.5t58 -290.5q0 -203 -98.5 -374t-270 -270.5t-375.5 -99.5q-153 0 -290.5 58.5t-236 158.5t-156.5 237.5t-58 289.5zM266 717q0 -235 159.5 -396t393.5 -161t393.5 161 t159.5 396q0 155 -72.5 283.5t-199.5 202t-281 73.5t-281 -73.5t-199.5 -202t-72.5 -283.5zM502 1573l217 276h196l218 -276h-191l-125 166l-125 -166h-190z" />
<glyph unicode="&#xd5;" horiz-adv-x="1638" d="M78 717q0 153 57.5 290.5t156.5 236.5t236.5 157.5t290.5 58.5t291 -58.5t237.5 -157.5t157.5 -236.5t58 -290.5q0 -203 -98.5 -374t-270 -270.5t-375.5 -99.5q-153 0 -290.5 58.5t-236 158.5t-156.5 237.5t-58 289.5zM266 717q0 -235 159.5 -396t393.5 -161t393.5 161 t159.5 396q0 155 -72.5 283.5t-199.5 202t-281 73.5t-281 -73.5t-199.5 -202t-72.5 -283.5zM512 1589q0 80 18 137t49 85.5t71.5 35.5t85.5 -7.5t91 -47.5q34 -24 54.5 -36.5t40.5 -18.5t30 3.5t16.5 33t6.5 65.5h149q0 -80 -18 -137t-48.5 -85t-71 -34.5t-85.5 8t-92 47.5 q-33 24 -53.5 36.5t-40 18t-30 -3.5t-17 -33.5t-6.5 -66.5h-150z" />
<glyph unicode="&#xd6;" horiz-adv-x="1638" d="M78 717q0 153 57.5 290.5t156.5 236.5t236.5 157.5t290.5 58.5t291 -58.5t237.5 -157.5t157.5 -236.5t58 -290.5q0 -203 -98.5 -374t-270 -270.5t-375.5 -99.5q-153 0 -290.5 58.5t-236 158.5t-156.5 237.5t-58 289.5zM266 717q0 -235 159.5 -396t393.5 -161t393.5 161 t159.5 396q0 155 -72.5 283.5t-199.5 202t-281 73.5t-281 -73.5t-199.5 -202t-72.5 -283.5zM516 1683q0 44 32.5 75.5t76.5 31.5t75 -31.5t31 -75.5t-31 -76t-75 -32t-76.5 32t-32.5 76zM905 1683q0 44 32.5 75.5t76.5 31.5t75 -31.5t31 -75.5t-31 -76t-75 -32t-76.5 32 t-32.5 76z" />
<glyph unicode="&#xd7;" horiz-adv-x="993" d="M102 440l277 277l-277 276l121 115l275 -272l272 272l121 -115l-277 -276l277 -277l-121 -114l-272 274l-275 -274z" />
<glyph unicode="&#xd8;" horiz-adv-x="1656" d="M96 717q0 153 58 290.5t156.5 236.5t236.5 157.5t291 58.5q242 0 432 -135l98 117l111 -64l-113 -135q102 -102 158.5 -237.5t56.5 -288.5q0 -152 -58 -289.5t-157 -237.5t-237 -158.5t-291 -58.5q-234 0 -430 136l-101 -117l-110 65l112 136q-100 102 -156.5 237.5 t-56.5 286.5zM285 717q0 -225 145 -383l719 850q-142 92 -311 92q-154 0 -281 -73.5t-199.5 -202t-72.5 -283.5zM526 252q137 -92 312 -92q234 0 393.5 161t159.5 396q0 223 -146 385z" />
<glyph unicode="&#xd9;" horiz-adv-x="1347" d="M135 481v953h191v-945q0 -153 90 -241t258 -88t258 88t90 241v945h188v-953q0 -231 -149.5 -369.5t-386.5 -138.5q-238 0 -388.5 139t-150.5 369zM432 1843l207 -270h172l-164 270h-215z" />
<glyph unicode="&#xda;" horiz-adv-x="1347" d="M135 481v953h191v-945q0 -153 90 -241t258 -88t258 88t90 241v945h188v-953q0 -231 -149.5 -369.5t-386.5 -138.5q-238 0 -388.5 139t-150.5 369zM551 1573h172l207 270h-215z" />
<glyph unicode="&#xdb;" horiz-adv-x="1347" d="M135 481v953h191v-945q0 -153 90 -241t258 -88t258 88t90 241v945h188v-953q0 -231 -149.5 -369.5t-386.5 -138.5q-238 0 -388.5 139t-150.5 369zM356 1567l217 276h197l217 -276h-190l-125 166l-125 -166h-191z" />
<glyph unicode="&#xdc;" horiz-adv-x="1347" d="M135 481v953h191v-945q0 -153 90 -241t258 -88t258 88t90 241v945h188v-953q0 -231 -149.5 -369.5t-386.5 -138.5q-238 0 -388.5 139t-150.5 369zM371 1677q0 44 32 75.5t76 31.5t75.5 -31.5t31.5 -75.5t-31.5 -76t-75.5 -32t-76 32t-32 76zM760 1677q0 44 32 75.5 t76 31.5t75.5 -31.5t31.5 -75.5t-31.5 -76t-75.5 -32t-76 32t-32 76z" />
<glyph unicode="&#xdd;" horiz-adv-x="1236" d="M16 1434h213l389 -672l390 672h213l-508 -854v-580h-191v582zM489 1573l164 270h215l-206 -270h-173z" />
<glyph unicode="&#xde;" horiz-adv-x="1208" d="M154 0v1434h190v-256h332q196 0 328.5 -132t132.5 -329q0 -195 -132.5 -328t-328.5 -133h-332v-256h-190zM344 434h332q117 0 194.5 80.5t77.5 202.5q0 123 -77.5 202.5t-194.5 79.5h-332v-565z" />
<glyph unicode="&#xdf;" horiz-adv-x="1071" d="M135 0v1051q0 190 114.5 299.5t299.5 109.5q169 0 269 -94t100 -231q0 -45 -16.5 -87t-40 -73.5t-47 -59.5t-40 -55.5t-16.5 -50.5q0 -30 20.5 -66t50.5 -69.5t66 -77t66 -86.5t50.5 -101t20.5 -118q0 -149 -113 -233t-333 -66v160q268 -18 268 155q0 49 -28.5 103 t-69 102.5t-81 96t-69 99t-28.5 97.5q0 40 25 83t55.5 74.5t55.5 74.5t25 83q0 79 -53.5 125.5t-140.5 46.5q-46 0 -86 -13t-73.5 -40.5t-53 -75.5t-19.5 -112v-1051h-178z" />
<glyph unicode="&#xe0;" d="M78 512q0 149 69.5 273t188.5 195t260 71q127 0 225.5 -53.5t161.5 -149.5v176h178v-1024h-178v176q-63 -96 -161.5 -149.5t-225.5 -53.5q-141 0 -260 71t-188.5 195t-69.5 273zM256 512q0 -157 104 -262t258 -105q155 0 260 105t105 262t-105 262t-260 105 q-154 0 -258 -105t-104 -262zM385 1434h215l164 -271h-172z" />
<glyph unicode="&#xe1;" d="M78 512q0 149 69.5 273t188.5 195t260 71q127 0 225.5 -53.5t161.5 -149.5v176h178v-1024h-178v176q-63 -96 -161.5 -149.5t-225.5 -53.5q-141 0 -260 71t-188.5 195t-69.5 273zM256 512q0 -157 104 -262t258 -105q155 0 260 105t105 262t-105 262t-260 105 q-154 0 -258 -105t-104 -262zM504 1163l164 271h215l-207 -271h-172z" />
<glyph unicode="&#xe2;" d="M78 512q0 149 69.5 273t188.5 195t260 71q127 0 225.5 -53.5t161.5 -149.5v176h178v-1024h-178v176q-63 -96 -161.5 -149.5t-225.5 -53.5q-141 0 -260 71t-188.5 195t-69.5 273zM256 512q0 -157 104 -262t258 -105q155 0 260 105t105 262t-105 262t-260 105 q-154 0 -258 -105t-104 -262zM309 1157l217 277h197l217 -277h-190l-125 166l-125 -166h-191z" />
<glyph unicode="&#xe3;" d="M78 512q0 149 69.5 273t188.5 195t260 71q127 0 225.5 -53.5t161.5 -149.5v176h178v-1024h-178v176q-63 -96 -161.5 -149.5t-225.5 -53.5q-141 0 -260 71t-188.5 195t-69.5 273zM256 512q0 -157 104 -262t258 -105q155 0 260 105t105 262t-105 262t-260 105 q-154 0 -258 -105t-104 -262zM319 1174q0 100 28 163t73.5 83t101 9t113.5 -53q34 -24 54 -36.5t40 -18.5t30.5 3.5t16.5 33t6 65.5h150q0 -100 -27.5 -162.5t-73 -82t-101 -8.5t-114.5 53q-33 24 -53.5 36.5t-40 18t-30 -3.5t-17 -33.5t-6.5 -66.5h-150z" />
<glyph unicode="&#xe4;" d="M78 512q0 149 69.5 273t188.5 195t260 71q127 0 225.5 -53.5t161.5 -149.5v176h178v-1024h-178v176q-63 -96 -161.5 -149.5t-225.5 -53.5q-141 0 -260 71t-188.5 195t-69.5 273zM256 512q0 -157 104 -262t258 -105q155 0 260 105t105 262t-105 262t-260 105 q-154 0 -258 -105t-104 -262zM324 1268q0 44 32 75t76 31t75.5 -31t31.5 -75t-31.5 -76.5t-75.5 -32.5t-76 32.5t-32 76.5zM713 1268q0 44 32 75t76 31t75.5 -31t31.5 -75t-31.5 -76.5t-75.5 -32.5t-76 32.5t-32 76.5z" />
<glyph unicode="&#xe5;" d="M78 512q0 149 69.5 273t188.5 195t260 71q127 0 225.5 -53.5t161.5 -149.5v176h178v-1024h-178v176q-63 -96 -161.5 -149.5t-225.5 -53.5q-141 0 -260 71t-188.5 195t-69.5 273zM256 512q0 -157 104 -262t258 -105q155 0 260 105t105 262t-105 262t-260 105 q-154 0 -258 -105t-104 -262zM395 1337q0 93 65 155t167 62q103 0 167 -61.5t64 -155.5q0 -95 -64 -157t-167 -62q-102 0 -167 62t-65 157zM530 1337q0 -41 26 -67.5t71 -26.5q48 0 73 26t25 68q0 40 -25.5 66.5t-72.5 26.5q-44 0 -70.5 -26.5t-26.5 -66.5z" />
<glyph unicode="&#xe6;" horiz-adv-x="2097" d="M78 512q0 149 69.5 273t188.5 195t260 71q127 0 225.5 -53.5t161.5 -149.5v176h172v-174q62 95 159.5 148t223.5 53q115 0 209 -44t154.5 -119t93.5 -172t33 -206q0 -33 -7 -80h-854q24 -136 122 -212.5t239 -76.5q105 0 182.5 41.5t118.5 108.5l151 -86 q-70 -109 -179.5 -170.5t-250.5 -61.5q-130 0 -231.5 52.5t-163.5 148.5v-174h-172v176q-63 -96 -161.5 -149.5t-225.5 -53.5q-141 0 -260 71t-188.5 195t-69.5 273zM256 512q0 -157 104 -262t258 -105q155 0 260 105t105 262t-105 262t-260 105q-154 0 -258 -105t-104 -262 zM1167 588h680q-21 144 -111.5 219.5t-215.5 75.5q-146 0 -239 -80t-114 -215z" />
<glyph unicode="&#xe7;" horiz-adv-x="1120" d="M78 512q0 150 69.5 273.5t193 194.5t275.5 71q151 0 272.5 -73t180.5 -196l-149 -86q-39 82 -120.5 131.5t-183.5 49.5q-154 0 -257 -105t-103 -260q0 -154 103 -258t257 -104q102 0 184 48.5t126 129.5l151 -88q-57 -105 -158.5 -174t-226.5 -86v-72q78 -16 126 -59 t48 -105q0 -211 -430 -186v135q135 -10 205 7t70 56q0 35 -43 52t-127 22v147q-203 26 -333 176t-130 359z" />
<glyph unicode="&#xe8;" horiz-adv-x="1193" d="M78 512q0 230 150 384.5t386 154.5q150 0 268 -75.5t180 -198.5t62 -267q0 -40 -6 -80h-858q26 -136 126 -212.5t245 -76.5q101 0 177.5 41.5t117.5 108.5l151 -86q-70 -108 -185.5 -170t-264.5 -62q-244 0 -396.5 153t-152.5 386zM260 586h684q-22 145 -114.5 221 t-215.5 76q-143 0 -237.5 -81t-116.5 -216zM360 1436h215l164 -271h-172z" />
<glyph unicode="&#xe9;" horiz-adv-x="1193" d="M78 512q0 230 150 384.5t386 154.5q150 0 268 -75.5t180 -198.5t62 -267q0 -40 -6 -80h-858q26 -136 126 -212.5t245 -76.5q101 0 177.5 41.5t117.5 108.5l151 -86q-70 -108 -185.5 -170t-264.5 -62q-244 0 -396.5 153t-152.5 386zM260 586h684q-22 145 -114.5 221 t-215.5 76q-143 0 -237.5 -81t-116.5 -216zM479 1165l164 271h215l-207 -271h-172z" />
<glyph unicode="&#xea;" horiz-adv-x="1193" d="M78 512q0 230 150 384.5t386 154.5q150 0 268 -75.5t180 -198.5t62 -267q0 -40 -6 -80h-858q26 -136 126 -212.5t245 -76.5q101 0 177.5 41.5t117.5 108.5l151 -86q-70 -108 -185.5 -170t-264.5 -62q-244 0 -396.5 153t-152.5 386zM260 586h684q-22 145 -114.5 221 t-215.5 76q-143 0 -237.5 -81t-116.5 -216zM285 1159l217 277h196l217 -277h-190l-125 166l-125 -166h-190z" />
<glyph unicode="&#xeb;" horiz-adv-x="1193" d="M78 512q0 230 150 384.5t386 154.5q150 0 268 -75.5t180 -198.5t62 -267q0 -40 -6 -80h-858q26 -136 126 -212.5t245 -76.5q101 0 177.5 41.5t117.5 108.5l151 -86q-70 -108 -185.5 -170t-264.5 -62q-244 0 -396.5 153t-152.5 386zM260 586h684q-22 145 -114.5 221 t-215.5 76q-143 0 -237.5 -81t-116.5 -216zM299 1270q0 44 32 75t77 31q44 0 75 -31t31 -75q0 -45 -31 -77t-75 -32t-76.5 32.5t-32.5 76.5zM688 1270q0 44 32 75t77 31q44 0 75 -31t31 -75q0 -45 -31 -77t-75 -32t-76.5 32.5t-32.5 76.5z" />
<glyph unicode="&#xec;" horiz-adv-x="450" d="M2 1434l135 -277h172l-98 277h-209zM135 0v1024h178v-1024h-178z" />
<glyph unicode="&#xed;" horiz-adv-x="450" d="M135 0v1024h178v-1024h-178zM141 1157h172l136 277h-211z" />
<glyph unicode="&#xee;" horiz-adv-x="450" d="M-55 1157l182 277h197l180 -277h-189l-90 143l-90 -143h-190zM135 0v1024h178v-1024h-178z" />
<glyph unicode="&#xef;" horiz-adv-x="450" d="M-37 1270q0 44 32.5 76t76.5 32t75 -32t31 -76t-31 -75.5t-75 -31.5t-76.5 31.5t-32.5 75.5zM135 0v1024h178v-1024h-178zM270 1270q0 44 32.5 76t76.5 32t75 -32t31 -76t-31 -75.5t-75 -31.5t-76.5 31.5t-32.5 75.5z" />
<glyph unicode="&#xf0;" horiz-adv-x="1189" d="M78 471q0 143 73 256.5t193 170.5t256 46q51 -4 78 -10l-154 209l-241 -137v143l166 94l-140 191h207l80 -107l233 133v-143l-159 -90l350 -469q94 -133 94 -287q0 -111 -42.5 -205.5t-114 -157.5t-165 -98t-196.5 -35t-196.5 35t-165 98t-114 157.5t-42.5 205.5z M256 471q0 -148 98.5 -237t241.5 -89q142 0 241 89.5t99 236.5q0 115 -55 188q-99 129 -283 129q-149 0 -245.5 -86.5t-96.5 -230.5z" />
<glyph unicode="&#xf1;" horiz-adv-x="1155" d="M135 0v1024h178v-147q109 174 332 174q181 0 289 -113.5t108 -308.5v-629h-178v618q0 125 -67.5 194t-186.5 69q-132 0 -214.5 -83t-82.5 -255v-543h-178zM293 1180q0 80 18 137t49 85t71.5 35t85.5 -7.5t91 -47.5q34 -24 54.5 -36.5t40.5 -18t30.5 3.5t16.5 33t6 66h149 q0 -80 -18 -137t-48.5 -85t-71 -34.5t-85.5 8t-92 47.5q-33 24 -53.5 36.5t-40.5 18t-30.5 -3.5t-17 -33.5t-6.5 -66.5h-149z" />
<glyph unicode="&#xf2;" horiz-adv-x="1232" d="M78 512q0 149 71.5 273t195.5 195t271 71t271.5 -71t197 -195t72.5 -273t-72.5 -273t-197 -195t-271.5 -71t-271 71t-195.5 195t-71.5 273zM256 512q0 -155 104 -260t256 -105q154 0 258.5 105t104.5 260t-104.5 260t-258.5 105q-152 0 -256 -105t-104 -260zM375 1440 l207 -271h172l-164 271h-215z" />
<glyph unicode="&#xf3;" horiz-adv-x="1232" d="M78 512q0 149 71.5 273t195.5 195t271 71t271.5 -71t197 -195t72.5 -273t-72.5 -273t-197 -195t-271.5 -71t-271 71t-195.5 195t-71.5 273zM256 512q0 -155 104 -260t256 -105q154 0 258.5 105t104.5 260t-104.5 260t-258.5 105q-152 0 -256 -105t-104 -260zM494 1169 h172l206 271h-215z" />
<glyph unicode="&#xf4;" horiz-adv-x="1232" d="M78 512q0 149 71.5 273t195.5 195t271 71t271.5 -71t197 -195t72.5 -273t-72.5 -273t-197 -195t-271.5 -71t-271 71t-195.5 195t-71.5 273zM256 512q0 -155 104 -260t256 -105q154 0 258.5 105t104.5 260t-104.5 260t-258.5 105q-152 0 -256 -105t-104 -260zM299 1163 l217 277h197l217 -277h-191l-125 166l-125 -166h-190z" />
<glyph unicode="&#xf5;" horiz-adv-x="1232" d="M78 512q0 149 71.5 273t195.5 195t271 71t271.5 -71t197 -195t72.5 -273t-72.5 -273t-197 -195t-271.5 -71t-271 71t-195.5 195t-71.5 273zM256 512q0 -155 104 -260t256 -105q154 0 258.5 105t104.5 260t-104.5 260t-258.5 105q-152 0 -256 -105t-104 -260zM309 1180 q0 100 28 163t73.5 83t101 9t113.5 -53q34 -24 54.5 -36.5t40 -18t30 4t16.5 33t6 65.5h150q0 -80 -18 -137t-49 -85t-71.5 -34.5t-85.5 8t-92 47.5q-33 24 -53.5 36.5t-40 18t-30 -3.5t-17 -33.5t-6.5 -66.5h-150z" />
<glyph unicode="&#xf6;" horiz-adv-x="1232" d="M78 512q0 149 71.5 273t195.5 195t271 71t271.5 -71t197 -195t72.5 -273t-72.5 -273t-197 -195t-271.5 -71t-271 71t-195.5 195t-71.5 273zM256 512q0 -155 104 -260t256 -105q154 0 258.5 105t104.5 260t-104.5 260t-258.5 105q-152 0 -256 -105t-104 -260zM313 1274 q0 44 32 75t77 31q44 0 75 -31t31 -75q0 -45 -31 -77t-75 -32t-76.5 32.5t-32.5 76.5zM702 1274q0 44 32 75t77 31q44 0 75.5 -31t31.5 -75t-31.5 -76.5t-75.5 -32.5t-76.5 32.5t-32.5 76.5z" />
<glyph unicode="&#xf7;" horiz-adv-x="1177" d="M113 633v170h952v-170h-952zM459 330q0 55 37.5 92t93.5 37t92.5 -36.5t36.5 -92.5t-37 -93.5t-92 -37.5q-56 0 -93.5 37.5t-37.5 93.5zM459 1106q0 55 37.5 92t93.5 37t92.5 -36.5t36.5 -92.5t-37 -93.5t-92 -37.5q-56 0 -93.5 37.5t-37.5 93.5z" />
<glyph unicode="&#xf8;" horiz-adv-x="1232" d="M78 512q0 149 71.5 273t195.5 195t271 71q175 0 316 -101l76 86l92 -53l-88 -100q145 -155 145 -371q0 -149 -72.5 -273t-197 -195t-271.5 -71q-169 0 -315 99l-74 -84l-92 53l88 100q-145 155 -145 371zM256 512q0 -138 84 -238l477 545q-89 58 -201 58 q-152 0 -256 -105t-104 -260zM418 205q89 -58 198 -58q154 0 258.5 105t104.5 260q0 138 -84 238z" />
<glyph unicode="&#xf9;" horiz-adv-x="1155" d="M113 395v629h178v-618q0 -125 67.5 -194t186.5 -69q132 0 214.5 83t82.5 255v543h178v-1024h-178v147q-109 -174 -332 -174q-181 0 -289 113.5t-108 308.5zM322 1434h215l163 -271h-172z" />
<glyph unicode="&#xfa;" horiz-adv-x="1155" d="M113 395v629h178v-618q0 -125 67.5 -194t186.5 -69q132 0 214.5 83t82.5 255v543h178v-1024h-178v147q-109 -174 -332 -174q-181 0 -289 113.5t-108 308.5zM440 1163l164 271h215l-207 -271h-172z" />
<glyph unicode="&#xfb;" horiz-adv-x="1155" d="M113 395v629h178v-618q0 -125 67.5 -194t186.5 -69q132 0 214.5 83t82.5 255v543h178v-1024h-178v147q-109 -174 -332 -174q-181 0 -289 113.5t-108 308.5zM246 1157l217 277h196l218 -277h-191l-125 166l-125 -166h-190z" />
<glyph unicode="&#xfc;" horiz-adv-x="1155" d="M113 395v629h178v-618q0 -125 67.5 -194t186.5 -69q132 0 214.5 83t82.5 255v543h178v-1024h-178v147q-109 -174 -332 -174q-181 0 -289 113.5t-108 308.5zM260 1268q0 44 32 75t77 31q44 0 75 -31t31 -75q0 -45 -31 -77t-75 -32t-76.5 32.5t-32.5 76.5zM649 1268 q0 44 32 75t77 31q44 0 75 -31t31 -75q0 -45 -31 -77t-75 -32t-76.5 32.5t-32.5 76.5z" />
<glyph unicode="&#xfd;" horiz-adv-x="1054" d="M16 1024h191l348 -803l295 803h190l-417 -1087q-65 -174 -182.5 -265.5t-272.5 -81.5v166q189 -14 276 209l19 39zM401 1163l164 271h215l-207 -271h-172z" />
<glyph unicode="&#xfe;" d="M135 -410v1844h178v-586q63 96 161.5 149.5t225.5 53.5q141 0 260 -71t189 -195t70 -273t-70 -273t-189 -195t-260 -71q-127 0 -225.5 53.5t-161.5 149.5v-586h-178zM313 512q0 -157 105 -262t260 -105q154 0 258 105t104 262t-104 262t-258 105q-155 0 -260 -105 t-105 -262z" />
<glyph unicode="&#xff;" horiz-adv-x="1054" d="M16 1024h191l348 -803l295 803h190l-417 -1087q-65 -174 -182.5 -265.5t-272.5 -81.5v166q189 -14 276 209l19 39zM221 1268q0 44 32 75t77 31q44 0 75 -31t31 -75q0 -45 -31 -77t-75 -32t-76.5 32.5t-32.5 76.5zM610 1268q0 44 32 75t77 31q44 0 75 -31t31 -75 q0 -45 -31 -77t-75 -32t-76.5 32.5t-32.5 76.5z" />
<glyph unicode="&#x152;" horiz-adv-x="1873" d="M78 717q0 153 54.5 290.5t149.5 237t229.5 157.5t287.5 58q98 0 194 -26h795v-181h-604v-440h567v-178h-567v-455h614v-180h-805q-100 -27 -194 -27q-153 0 -287.5 58.5t-229.5 158.5t-149.5 237t-54.5 290zM266 717q0 -237 150.5 -397t382.5 -160q117 0 194 30v1055 q-91 31 -194 31q-154 0 -276 -74t-189.5 -201.5t-67.5 -283.5z" />
<glyph unicode="&#x153;" horiz-adv-x="2095" d="M78 512q0 229 153 384t383 155q151 0 270 -75t183 -202q62 128 180 202.5t275 74.5q112 0 207.5 -44t159.5 -118.5t100 -172.5t36 -206q0 -40 -6 -80h-858q26 -138 125.5 -213.5t241.5 -75.5q104 0 181 41.5t118 108.5l151 -86q-70 -108 -184.5 -170t-261.5 -62 q-162 0 -283 74t-182 203q-64 -127 -183 -202t-270 -75q-230 0 -383 155t-153 384zM256 512q0 -157 101 -261t259 -104q154 0 258.5 105t104.5 260t-104.5 260t-258.5 105q-158 0 -259 -104t-101 -261zM1161 588h684q-22 144 -114 219.5t-215 75.5q-140 0 -236 -80.5 t-119 -214.5z" />
<glyph unicode="&#x178;" horiz-adv-x="1236" d="M16 1434h213l389 -672l390 672h213l-508 -854v-580h-191v582zM309 1677q0 44 32.5 75.5t76.5 31.5t75 -31.5t31 -75.5t-31 -76t-75 -32t-76.5 32t-32.5 76zM698 1677q0 44 32.5 75.5t76.5 31.5t75 -31.5t31 -75.5t-31 -76t-75 -32t-76.5 32t-32.5 76z" />
<glyph unicode="&#x2c6;" horiz-adv-x="712" d="M41 1157l217 277h197l217 -277h-191l-125 166l-125 -166h-190z" />
<glyph unicode="&#x2dc;" horiz-adv-x="696" d="M43 1174q0 80 18 137t49 85t71.5 35t85.5 -7.5t91 -47.5q34 -24 54.5 -36.5t40.5 -18.5t30 3.5t16.5 33t6.5 65.5h149q0 -100 -27.5 -162.5t-72.5 -82t-100.5 -8.5t-114.5 53q-33 24 -53.5 36.5t-40 18t-30 -3.5t-17 -33.5t-6.5 -66.5h-150z" />
<glyph unicode="&#x2000;" horiz-adv-x="924" />
<glyph unicode="&#x2001;" horiz-adv-x="1849" />
<glyph unicode="&#x2002;" horiz-adv-x="924" />
<glyph unicode="&#x2003;" horiz-adv-x="1849" />
<glyph unicode="&#x2004;" horiz-adv-x="616" />
<glyph unicode="&#x2005;" horiz-adv-x="462" />
<glyph unicode="&#x2006;" horiz-adv-x="308" />
<glyph unicode="&#x2007;" horiz-adv-x="308" />
<glyph unicode="&#x2008;" horiz-adv-x="231" />
<glyph unicode="&#x2009;" horiz-adv-x="369" />
<glyph unicode="&#x200a;" horiz-adv-x="102" />
<glyph unicode="&#x2010;" horiz-adv-x="1054" d="M154 543v172h747v-172h-747z" />
<glyph unicode="&#x2011;" horiz-adv-x="1054" d="M154 543v172h747v-172h-747z" />
<glyph unicode="&#x2012;" horiz-adv-x="1054" d="M154 543v172h747v-172h-747z" />
<glyph unicode="&#x2013;" horiz-adv-x="1341" d="M154 543v172h1034v-172h-1034z" />
<glyph unicode="&#x2014;" horiz-adv-x="1546" d="M154 543v172h1239v-172h-1239z" />
<glyph unicode="&#x2018;" horiz-adv-x="518" d="M117 936l133 498h153l-81 -498h-205z" />
<glyph unicode="&#x2019;" horiz-adv-x="518" d="M115 938l82 498h204l-133 -498h-153z" />
<glyph unicode="&#x201a;" horiz-adv-x="518" d="M115 -287l82 498h204l-133 -498h-153z" />
<glyph unicode="&#x201c;" horiz-adv-x="835" d="M117 936l133 498h153l-81 -498h-205zM434 936l133 498h154l-82 -498h-205z" />
<glyph unicode="&#x201d;" horiz-adv-x="835" d="M115 938l82 498h204l-133 -498h-153zM432 938l82 498h205l-133 -498h-154z" />
<glyph unicode="&#x201e;" horiz-adv-x="835" d="M115 -287l82 498h204l-133 -498h-153zM432 -287l82 498h205l-133 -498h-154z" />
<glyph unicode="&#x2022;" horiz-adv-x="655" d="M98 719q0 95 67.5 162t164.5 67q95 0 162 -67t67 -162q0 -97 -67 -164.5t-162 -67.5q-97 0 -164.5 67.5t-67.5 164.5z" />
<glyph unicode="&#x2026;" horiz-adv-x="1327" d="M115 111q0 55 38.5 94t94.5 39q57 0 95 -38.5t38 -94.5t-38 -95t-95 -39q-55 0 -94 39t-39 95zM530 111q0 55 39 94t95 39q57 0 95 -38.5t38 -94.5t-38 -95t-95 -39q-56 0 -95 39.5t-39 94.5zM944 111q0 55 39 94t94 39q57 0 95 -38.5t38 -94.5t-38 -95t-95 -39 q-55 0 -94 39t-39 95z" />
<glyph unicode="&#x202f;" horiz-adv-x="369" />
<glyph unicode="&#x2039;" horiz-adv-x="696" d="M139 633l226 375h192l-225 -375l225 -373h-192z" />
<glyph unicode="&#x203a;" horiz-adv-x="696" d="M139 260l226 373l-226 375h193l225 -375l-225 -373h-193z" />
<glyph unicode="&#x205f;" horiz-adv-x="462" />
<glyph unicode="&#x20ac;" horiz-adv-x="1228" d="M39 539v133h137v45q0 43 2 63h-139v131h151q40 255 183 402t364 147q154 0 267 -74t174 -210l-158 -91q-85 191 -283 191q-138 0 -230 -94t-124 -271h485v-131h-499q-2 -20 -2 -63v-45h501v-133h-487q29 -183 121 -281t235 -98q204 0 285 194l158 -90 q-59 -139 -173.5 -215t-269.5 -76q-225 0 -368.5 151.5t-180.5 414.5h-149z" />
<glyph unicode="&#x2122;" horiz-adv-x="958" d="M78 1346v88h328v-88h-115v-322h-96v322h-117zM453 1024v410h94l121 -189l118 189h95v-410h-95v254l-114 -180h-10l-115 180v-254h-94z" />
<glyph unicode="&#x25fc;" horiz-adv-x="1024" d="M0 0v1024h1024v-1024h-1024z" />
<glyph unicode="&#xfb03;" horiz-adv-x="1642" d="M49 852v172h164v31q0 206 116 313t333 92v-172q-136 11 -203.5 -45.5t-67.5 -187.5v-31h381v51q0 406 447 406q83 0 211 -27v-162q-129 17 -211 17q-139 0 -204 -52.5t-65 -181.5v-51h557v-1024h-178v852h-379v-852h-178v852h-381v-852h-178v852h-164z" />
<glyph unicode="&#xfb04;" horiz-adv-x="1642" d="M49 852v172h164v31q0 206 116 313t333 92v-172q-136 11 -203.5 -45.5t-67.5 -187.5v-31h381v51q0 406 447 406q119 0 288 -31v-1450h-178v1317q-74 4 -110 4q-137 0 -203 -57.5t-66 -188.5v-51h213v-172h-213v-852h-178v852h-381v-852h-178v852h-164z" />
</font>
</defs>
</svg>
