<?xml version="1.0" standalone="no"?>
<!DOCTYPE svg PUBLIC "-//W3C//DTD SVG 1.1//EN" "http://www.w3.org/Graphics/SVG/1.1/DTD/svg11.dtd" >
<svg xmlns="http://www.w3.org/2000/svg" xmlns:xlink="http://www.w3.org/1999/xlink" version="1.1">
<metadata></metadata>
<defs>
<font id="gilroyregular" horiz-adv-x="1302" >
<font-face units-per-em="2048" ascent="1638" descent="-410" />
<missing-glyph horiz-adv-x="512" />
<glyph unicode="&#xfb01;" horiz-adv-x="1056" d="M51 893v131h174v41q0 197 110 295t320 98q86 0 197 -24v-123q-96 16 -197 16q-154 0 -224.5 -59t-70.5 -203v-41h553v-1024h-135v893h-418v-893h-135v893h-174z" />
<glyph unicode="&#xfb02;" horiz-adv-x="1056" d="M51 893v131h174v41q0 197 110 295t320 98q120 0 258 -24v-1434h-135v1329q-65 6 -123 6q-152 0 -223.5 -62.5t-71.5 -207.5v-41h234v-131h-234v-893h-135v893h-174z" />
<glyph horiz-adv-x="0" />
<glyph horiz-adv-x="682" />
<glyph unicode=" "  horiz-adv-x="512" />
<glyph unicode="&#x09;" horiz-adv-x="512" />
<glyph unicode="&#xa0;" horiz-adv-x="512" />
<glyph unicode="!" horiz-adv-x="471" d="M123 92q0 47 33 80t80 33t79.5 -33t32.5 -80t-32.5 -79.5t-79.5 -32.5t-80 32.5t-33 79.5zM154 1024v410h163v-410l-30 -635h-103z" />
<glyph unicode="&#x22;" horiz-adv-x="634" d="M102 1434h144l-21 -410h-102zM389 1434h143l-20 -410h-102z" />
<glyph unicode="#" horiz-adv-x="1226" d="M61 471l21 123h246l41 246h-248l20 123h248l62 368h131l-62 -368h271l61 368h131l-61 -368h243l-20 -123h-244l-41 -246h246l-21 -123h-245l-62 -369h-131l62 369h-271l-61 -369h-131l61 369h-246zM459 594h270l41 246h-270z" />
<glyph unicode="$" horiz-adv-x="1126" d="M82 274l123 72q75 -209 327 -229v565q-73 26 -119.5 45.5t-101 53.5t-85 72t-51.5 95t-21 129q0 159 107.5 261t270.5 118v182h123v-184q120 -14 214.5 -81t144.5 -183l-121 -68q-66 165 -238 191v-533q50 -18 86.5 -32.5t79.5 -36t73.5 -43.5t60.5 -52.5t48 -65 t29.5 -80t11.5 -97.5q0 -160 -108.5 -267t-280.5 -126v-185h-123v182q-165 10 -282 88t-168 209zM297 1077q0 -95 57 -150t178 -102v490q-106 -12 -170.5 -75.5t-64.5 -162.5zM655 119q115 17 180.5 85t65.5 169t-61.5 159.5t-184.5 106.5v-520z" />
<glyph unicode="%" horiz-adv-x="1452" d="M123 1151q0 129 89.5 218t223.5 89t224 -89t90 -218t-89 -218t-225 -89q-134 0 -223.5 89t-89.5 218zM195 195l960 1079l88 -49l-962 -1080zM254 1151q0 -78 51 -131t131 -53t131 53t51 131t-51 131t-131 53t-131 -53t-51 -131zM702 283q0 129 90 218t224 89t223.5 -89 t89.5 -218t-89.5 -218.5t-223.5 -89.5t-224 89.5t-90 218.5zM834 283q0 -78 51 -131.5t131 -53.5t131 53.5t51 131.5t-51 131t-131 53t-131 -53t-51 -131z" />
<glyph unicode="&#x26;" horiz-adv-x="1345" d="M123 381q0 134 70 243.5t206 172.5q-106 122 -106 270q0 119 59.5 210t151.5 136t198 45q137 0 251 -76.5t163 -207.5l-121 -70q-30 100 -109.5 157.5t-180.5 57.5q-111 0 -190 -67.5t-79 -176.5q0 -71 33.5 -129t99.5 -127l432 -461q60 118 78 273l127 -74 q-26 -177 -104 -305l192 -205l-127 -72l-151 162q-162 -162 -422 -162q-212 0 -341.5 109.5t-129.5 296.5zM266 385q0 -126 87 -198t237 -72q204 0 328 127l-422 448q-120 -44 -175 -127t-55 -178z" />
<glyph unicode="'" horiz-adv-x="348" d="M102 1434h144l-21 -410h-102z" />
<glyph unicode="(" horiz-adv-x="544" d="M123 717q0 469 225 921h135q-225 -452 -225 -921q0 -470 225 -922h-135q-225 452 -225 922z" />
<glyph unicode=")" horiz-adv-x="544" d="M61 -205q226 454 226 922q0 467 -226 921h136q225 -452 225 -921q0 -470 -225 -922h-136z" />
<glyph unicode="*" horiz-adv-x="802" d="M123 1135v114l186 -6l-106 154l104 61l94 -166l95 166l104 -61l-106 -154l186 6v-114l-186 6l106 -154l-104 -61l-95 166l-94 -166l-104 61l106 154z" />
<glyph unicode="+" horiz-adv-x="1105" d="M123 651v131h364v365h131v-365h365v-131h-365v-364h-131v364h-364z" />
<glyph unicode="," horiz-adv-x="491" d="M123 -287l82 461h164l-123 -461h-123z" />
<glyph unicode="-" horiz-adv-x="1064" d="M164 567v131h737v-131h-737z" />
<glyph unicode="." horiz-adv-x="471" d="M123 92q0 47 33 80t80 33t79.5 -33t32.5 -80t-32.5 -79.5t-79.5 -32.5t-80 32.5t-33 79.5z" />
<glyph unicode="/" horiz-adv-x="1085" d="M82 -205l819 1843h103l-820 -1843h-102z" />
<glyph unicode="0" horiz-adv-x="1290" d="M102 717q0 222 62 388t185.5 259.5t295.5 93.5t295.5 -93.5t185.5 -259.5t62 -388t-62 -388.5t-185.5 -260t-295.5 -93.5t-295.5 93.5t-185.5 260t-62 388.5zM246 717q0 -287 105 -444.5t294 -157.5t294 157.5t105 444.5t-105 444.5t-294 157.5t-294 -157.5t-105 -444.5z " />
<glyph unicode="1" horiz-adv-x="696" d="M31 1303l379 131h122v-1434h-143v1276l-321 -96z" />
<glyph unicode="2" horiz-adv-x="1075" d="M82 0v129l516 520q105 105 163 196t58 183q0 138 -85 214.5t-204 76.5q-220 0 -321 -203l-121 72q67 133 184 201.5t258 68.5q81 0 157.5 -28.5t138.5 -80.5t99.5 -135.5t37.5 -185.5q0 -125 -70 -239.5t-197 -241.5l-409 -408h706v-139h-911z" />
<glyph unicode="3" horiz-adv-x="1085" d="M61 260l119 70q34 -106 124.5 -160.5t217.5 -54.5q146 0 242 79t96 222t-96 222t-242 79v2l-2 -2h-39l-61 94l356 487h-674v136h840v-136l-334 -460q82 -11 152.5 -43t125.5 -83.5t86.5 -127.5t31.5 -168q0 -104 -39.5 -189t-107 -139t-154 -83.5t-181.5 -29.5 q-160 0 -285 74t-176 211z" />
<glyph unicode="4" horiz-adv-x="1187" d="M51 287v135l533 1012h157l-532 -1012h600v438h143v-438h185v-135h-185v-287h-143v287h-758z" />
<glyph unicode="5" horiz-adv-x="1105" d="M82 281l121 69q30 -115 121.5 -175t218.5 -60q146 0 242 79t96 222t-96 222t-242 79h-389l51 717h768v-136h-641l-31 -442h242q96 0 182 -29t153 -83.5t106.5 -139t39.5 -188.5t-39.5 -189t-106.5 -139t-153.5 -83.5t-181.5 -29.5q-162 0 -288.5 79.5t-172.5 226.5z" />
<glyph unicode="6" horiz-adv-x="1085" d="M61 449q0 160 89 286l468 699h162l-352 -525q60 13 115 13q210 0 345.5 -131.5t135.5 -341.5t-135.5 -342t-345.5 -132t-346 132t-136 342zM205 449q0 -151 93 -242.5t245 -91.5t245 91.5t93 242.5t-93 242t-245 91t-245 -91t-93 -242z" />
<glyph unicode="7" horiz-adv-x="1003" d="M41 1298v136h881v-136l-541 -1298h-150l541 1298h-731z" />
<glyph unicode="8" horiz-adv-x="1122" d="M82 389q0 117 64 208t173 142q-87 49 -138.5 132.5t-51.5 189.5q0 98 37 176t99.5 125t138 71.5t157.5 24.5t157.5 -24.5t138 -71.5t99.5 -125t37 -176q0 -106 -51.5 -189.5t-138.5 -132.5q109 -51 173 -142t64 -208q0 -98 -38 -178t-104 -131t-152.5 -78t-184.5 -27 t-184.5 27t-152.5 78t-104 131t-38 178zM225 389q0 -134 92 -204t244 -70t244 70t92 204t-92 204.5t-244 70.5t-244 -70.5t-92 -204.5zM272 1061q0 -123 85 -190.5t204 -67.5t204 67.5t85 190.5q0 130 -83.5 194t-205.5 64t-205.5 -64t-83.5 -194z" />
<glyph unicode="9" horiz-adv-x="1085" d="M61 985q0 209 135.5 341t346.5 132q210 0 345.5 -131.5t135.5 -341.5q0 -162 -88 -287l-469 -698h-162l352 524q-55 -12 -114 -12q-211 0 -346.5 132t-135.5 341zM205 985q0 -151 93 -242.5t245 -91.5t245 91.5t93 242.5t-93 242.5t-245 91.5t-245 -91.5t-93 -242.5z" />
<glyph unicode=":" horiz-adv-x="471" d="M123 92q0 47 33 80t80 33t79.5 -33t32.5 -80t-32.5 -79.5t-79.5 -32.5t-80 32.5t-33 79.5zM123 932q0 47 33 79.5t80 32.5t79.5 -32.5t32.5 -79.5t-32.5 -80t-79.5 -33t-80 33t-33 80z" />
<glyph unicode=";" horiz-adv-x="501" d="M123 -287l82 461h164l-123 -461h-123zM154 932q0 47 32.5 79.5t79.5 32.5t80 -32.5t33 -79.5t-33 -80t-80 -33t-79.5 33t-32.5 80z" />
<glyph unicode="&#x3c;" horiz-adv-x="1064" d="M123 645v143l819 359v-152l-666 -278l666 -279v-151z" />
<glyph unicode="=" horiz-adv-x="1105" d="M123 446v132h860v-132h-860zM123 856v131h860v-131h-860z" />
<glyph unicode="&#x3e;" horiz-adv-x="1064" d="M123 287v151l665 279l-665 278v152l819 -359v-143z" />
<glyph unicode="?" horiz-adv-x="1089" d="M102 1180q47 138 165 208t268 70q115 0 211 -41t158.5 -129t62.5 -209q0 -64 -21.5 -121.5t-56.5 -102t-77 -86.5t-84 -83.5t-77 -84t-56.5 -97.5t-21.5 -115h-143q0 73 21.5 137t56.5 111t76.5 90t83.5 82.5t77 79t56.5 88t21.5 102.5q0 119 -81 179.5t-207 60.5 q-115 0 -198 -51t-114 -156zM389 92q0 47 33 80t80 33t79.5 -33t32.5 -80t-32.5 -79.5t-79.5 -32.5t-80 32.5t-33 79.5z" />
<glyph unicode="@" horiz-adv-x="1626" d="M82 512q0 203 96.5 372.5t268 269t380.5 99.5q133 0 249.5 -40t201 -109t145.5 -158.5t91 -190t30 -202.5q0 -112 -26 -199t-69.5 -136.5t-94 -74t-105.5 -24.5q-86 0 -147 43.5t-82 132.5q-87 -111 -227 -111q-142 0 -237 94.5t-95 233.5t95 233.5t237 94.5 q131 0 217 -99v84h127v-442q0 -197 133 -197q91 0 152 89.5t61 277.5q0 180 -86.5 328t-237 231.5t-332.5 83.5q-139 0 -265 -52t-218 -142t-146.5 -218t-54.5 -272q0 -195 93.5 -351.5t258.5 -244.5t369 -88q209 0 357 59v-61q-151 -55 -357 -55q-221 0 -399.5 95 t-280.5 264.5t-102 381.5zM588 512q0 -91 62 -148t151 -57q87 0 148 57t61 148t-61 148t-148 57q-89 0 -151 -57t-62 -148z" />
<glyph unicode="A" horiz-adv-x="1290" d="M20 0l551 1434h148l551 -1434h-152l-133 352h-680l-133 -352h-152zM356 487h578l-289 768z" />
<glyph unicode="B" horiz-adv-x="1269" d="M164 0v1434h577q159 0 272 -113t113 -272q0 -98 -45 -178t-123 -128q104 -44 167 -135.5t63 -208.5q0 -166 -117 -282.5t-283 -116.5h-624zM307 135h481q106 0 181 77t75 187q0 109 -75 187t-181 78h-481v-529zM307 799h434q100 0 171 73t71 177q0 103 -71 176t-171 73 h-434v-499z" />
<glyph unicode="C" horiz-adv-x="1525" d="M82 717q0 152 56 288.5t154.5 236t239 158t302.5 58.5q198 0 364 -95.5t256 -256.5l-127 -74q-67 130 -200 208.5t-293 78.5q-177 0 -317 -81t-216 -218t-76 -303t76 -303t216 -218t317 -81q160 0 293.5 78t199.5 208l127 -71q-89 -162 -255 -258.5t-365 -96.5 q-162 0 -303 58.5t-239 158.5t-154 236.5t-56 288.5z" />
<glyph unicode="D" horiz-adv-x="1474" d="M164 0v1434h553q145 0 271.5 -56.5t215 -153.5t139 -228.5t50.5 -278.5t-50.5 -278.5t-139 -228.5t-215 -153.5t-271.5 -56.5h-553zM307 135h410q156 0 279.5 78.5t190 211t66.5 292.5t-66.5 292.5t-190 210.5t-279.5 78h-410v-1163z" />
<glyph unicode="E" horiz-adv-x="1085" d="M164 0v1434h829v-136h-686v-507h635v-136h-635v-520h697v-135h-840z" />
<glyph unicode="F" horiz-adv-x="1054" d="M164 0v1434h809v-136h-666v-528h635v-135h-635v-635h-143z" />
<glyph unicode="G" horiz-adv-x="1615" d="M82 717q0 152 56 288.5t154.5 236t239 158t302.5 58.5q198 0 363.5 -95.5t256.5 -256.5l-127 -74q-67 130 -200 208.5t-293 78.5q-177 0 -317 -81t-216 -218t-76 -303t76 -303t216 -218t317 -81q241 0 386 121.5t166 310.5h-569v135h717v-74q0 -129 -48 -243.5t-136 -201 t-221.5 -137.5t-294.5 -51q-162 0 -303 58.5t-239 158.5t-154 236.5t-56 288.5z" />
<glyph unicode="H" horiz-adv-x="1392" d="M164 0v1434h143v-629h778v629h144v-1434h-144v670h-778v-670h-143z" />
<glyph unicode="I" horiz-adv-x="471" d="M164 0v1434h143v-1434h-143z" />
<glyph unicode="J" horiz-adv-x="1132" d="M82 221l121 72q67 -178 315 -178q149 0 238.5 71.5t89.5 219.5v1028h143v-1028q0 -107 -38 -190.5t-103.5 -135.5t-149.5 -78.5t-180 -26.5q-150 0 -267 62.5t-169 183.5z" />
<glyph unicode="K" horiz-adv-x="1187" d="M164 0v1434h143v-656l651 656h189l-688 -697l708 -737h-188l-672 694v-694h-143z" />
<glyph unicode="L" horiz-adv-x="1003" d="M164 0v1434h143v-1299h656v-135h-799z" />
<glyph unicode="M" horiz-adv-x="1638" d="M164 0v1434h178l477 -799l477 799h179v-1434h-144v1217l-502 -840h-20l-502 840v-1217h-143z" />
<glyph unicode="N" horiz-adv-x="1392" d="M164 0v1434h123l798 -1168v1168h144v-1434h-123l-799 1167v-1167h-143z" />
<glyph unicode="O" horiz-adv-x="1646" d="M82 717q0 151 57.5 288t156 236.5t236 158t291.5 58.5t292 -58.5t236.5 -158t156 -236.5t57.5 -288q0 -202 -97.5 -372.5t-268.5 -270t-376 -99.5q-154 0 -291.5 58.5t-236 158t-156 237t-57.5 288.5zM225 717q0 -165 78 -303t215.5 -218.5t304.5 -80.5t304.5 80.5 t215.5 218.5t78 303t-78 303t-215.5 218.5t-304.5 80.5t-304.5 -80.5t-215.5 -218.5t-78 -303z" />
<glyph unicode="P" horiz-adv-x="1208" d="M164 0v1434h512q193 0 321.5 -128.5t128.5 -322.5q0 -192 -128.5 -321.5t-321.5 -129.5h-369v-532h-143zM307 668h369q133 0 220 89t87 226q0 138 -86.5 226.5t-220.5 88.5h-369v-630z" />
<glyph unicode="Q" horiz-adv-x="1656" d="M82 717q0 151 58.5 288.5t157.5 236.5t236.5 157.5t288.5 58.5q202 0 372.5 -99t270 -269.5t99.5 -372.5q0 -151 -57 -286t-160 -238l163 -160l-96 -88l-166 164q-193 -134 -426 -134q-202 0 -372.5 99.5t-269.5 270t-99 372.5zM225 717q0 -164 79.5 -302.5t217.5 -219 t301 -80.5q174 0 324 94l-311 307l96 88l317 -311q81 84 126.5 193t45.5 231q0 164 -79.5 302.5t-217.5 219t-301 80.5t-301 -80.5t-217.5 -219t-79.5 -302.5z" />
<glyph unicode="R" horiz-adv-x="1249" d="M164 0v1434h573q179 0 304.5 -126t125.5 -304q0 -145 -87 -259t-222 -153l350 -592h-164l-335 573h-402v-573h-143zM307 709h430q118 0 202.5 86.5t84.5 208.5q0 123 -84 208.5t-203 85.5h-430v-589z" />
<glyph unicode="S" horiz-adv-x="1179" d="M82 326l123 71q39 -133 143 -207.5t268 -74.5q160 0 249 70t89 188q0 35 -9 65t-23 52.5t-41 44t-51.5 36.5t-66.5 32.5t-74.5 29t-86.5 29.5q-179 60 -236 87q-152 71 -199 183q-24 58 -24 133q0 92 35.5 167.5t96 124t140 75t169.5 26.5q168 0 291 -86.5t182 -222.5 l-121 -68q-44 106 -132 172t-220 66t-214.5 -66t-82.5 -182q0 -46 15.5 -82t39 -61t68 -48.5t85.5 -39t109 -37.5q202 -67 280 -107q159 -83 199 -211q15 -49 15 -108q0 -183 -133.5 -292.5t-350.5 -109.5q-196 0 -336 93.5t-196 257.5z" />
<glyph unicode="T" horiz-adv-x="1105" d="M41 1298v136h1024v-136h-440v-1298h-144v1298h-440z" />
<glyph unicode="U" horiz-adv-x="1351" d="M143 487v947h144v-947q0 -172 102.5 -272t286.5 -100t286.5 100t102.5 272v947h143v-947q0 -233 -147.5 -372.5t-384.5 -139.5t-385 139.5t-148 372.5z" />
<glyph unicode="V" horiz-adv-x="1245" d="M20 1434h156l447 -1244l446 1244h156l-529 -1434h-147z" />
<glyph unicode="W" horiz-adv-x="2048" d="M61 1434h152l354 -1239l373 1239h168l373 -1239l354 1239h152l-416 -1434h-172l-375 1245l-375 -1245h-172z" />
<glyph unicode="X" horiz-adv-x="1187" d="M41 0l471 739l-440 695h161l361 -566l360 566h162l-440 -695l471 -739h-164l-389 612l-389 -612h-164z" />
<glyph unicode="Y" horiz-adv-x="1218" d="M20 1434h162l428 -703l426 703h162l-518 -846v-588h-143v592z" />
<glyph unicode="Z" horiz-adv-x="1064" d="M82 0v135l741 1163h-721v136h881v-136l-741 -1163h762v-135h-922z" />
<glyph unicode="[" horiz-adv-x="573" d="M123 -205v1843h409v-131h-274v-1581h274v-131h-409z" />
<glyph unicode="\" horiz-adv-x="1085" d="M82 1638h102l820 -1843h-103z" />
<glyph unicode="]" horiz-adv-x="573" d="M41 -74h274v1581h-274v131h410v-1843h-410v131z" />
<glyph unicode="^" horiz-adv-x="1024" d="M82 819l360 615h140l360 -615h-158l-272 465l-272 -465h-158z" />
<glyph unicode="_" horiz-adv-x="1064" d="M82 -158h901v-131h-901v131z" />
<glyph unicode="`" horiz-adv-x="409" d="M41 1434l197 -267h131l-164 267h-164z" />
<glyph unicode="a" d="M82 512q0 149 71.5 272.5t192.5 194t264 70.5q133 0 240.5 -60.5t173.5 -165.5v201h135v-1024h-135v201q-66 -105 -173.5 -165.5t-240.5 -60.5q-143 0 -264 70.5t-192.5 194t-71.5 272.5zM217 512q0 -170 117 -288t287 -118t286.5 117.5t116.5 288.5t-116.5 288.5 t-286.5 117.5t-287 -118t-117 -288z" />
<glyph unicode="b" d="M143 0v1434h136v-611q66 106 173 166t240 60q143 0 264.5 -70.5t193 -194.5t71.5 -272t-71.5 -272t-193 -194.5t-264.5 -70.5q-133 0 -240 60t-173 166v-201h-136zM279 512q0 -171 116.5 -288.5t286.5 -117.5t286.5 117.5t116.5 288.5t-116.5 288.5t-286.5 117.5 t-286.5 -117.5t-116.5 -288.5z" />
<glyph unicode="c" horiz-adv-x="1130" d="M82 512q0 112 41 211.5t112 171t171.5 113t214.5 41.5q151 0 271.5 -73t176.5 -196l-111 -63q-42 92 -132.5 146.5t-204.5 54.5q-170 0 -287 -118t-117 -288t117 -288t287 -118q114 0 204.5 54.5t141.5 146.5l112 -65q-64 -123 -186.5 -195t-271.5 -72 q-114 0 -214.5 41.5t-171.5 113t-112 171t-41 211.5z" />
<glyph unicode="d" d="M82 512q0 149 71.5 272.5t192.5 194t264 70.5q133 0 240.5 -60.5t173.5 -165.5v611h135v-1434h-135v201q-66 -105 -173.5 -165.5t-240.5 -60.5q-143 0 -264 70.5t-192.5 194t-71.5 272.5zM217 512q0 -170 117 -288t287 -118t286.5 117.5t116.5 288.5t-116.5 288.5 t-286.5 117.5t-287 -118t-117 -288z" />
<glyph unicode="e" horiz-adv-x="1196" d="M82 512q0 150 66.5 272t189.5 193.5t278 71.5q114 0 211 -45t161 -120t100 -172.5t36 -203.5q0 -24 -4 -64h-899q22 -156 133 -247t275 -91q116 0 200.5 48.5t128.5 126.5l119 -70q-67 -108 -183.5 -172t-266.5 -64q-241 0 -393 151.5t-152 385.5zM221 575h764 q-21 162 -125.5 252.5t-243.5 90.5q-159 0 -266.5 -95t-128.5 -248z" />
<glyph unicode="f" horiz-adv-x="655" d="M51 893v131h174v41q0 201 112 305q98 90 267 90q25 0 51 -2v-131q-24 2 -46 2q-116 0 -177 -53q-72 -64 -72 -211v-41h295v-131h-295v-893h-135v893h-174z" />
<glyph unicode="g" d="M82 512q0 149 71.5 272.5t192.5 194t264 70.5q133 0 240.5 -60.5t173.5 -165.5v201h135v-983q0 -113 -43 -205t-115.5 -150t-164 -89t-191.5 -31q-176 0 -300.5 64.5t-184.5 185.5l119 67q43 -88 127.5 -137t238.5 -49q177 0 278 93t101 251v160q-66 -105 -173.5 -165.5 t-240.5 -60.5q-143 0 -264 70.5t-192.5 194t-71.5 272.5zM217 512q0 -170 117 -288t287 -118t286.5 117.5t116.5 288.5t-116.5 288.5t-286.5 117.5t-287 -118t-117 -288z" />
<glyph unicode="h" horiz-adv-x="1142" d="M143 0v1434h136v-570q115 185 344 185q186 0 293.5 -113.5t107.5 -306.5v-629h-135v629q0 137 -73 213t-206 76q-146 0 -238.5 -93.5t-92.5 -287.5v-537h-136z" />
<glyph unicode="i" horiz-adv-x="421" d="M113 1339q0 40 28.5 69.5t69.5 29.5t69.5 -29.5t28.5 -69.5t-28.5 -69t-69.5 -29t-69.5 29t-28.5 69zM143 0v1024h136v-1024h-136z" />
<glyph unicode="j" horiz-adv-x="471" d="M-41 -303q23 -2 43 -2q89 0 134 41q57 52 57 182v1106h135v-1106q0 -184 -96 -276q-82 -78 -225 -78q-23 0 -48 2v131zM162 1339q0 40 28.5 69.5t69.5 29.5t69.5 -29.5t28.5 -69.5t-28.5 -69t-69.5 -29t-69.5 29t-28.5 69z" />
<glyph unicode="k" horiz-adv-x="1011" d="M143 0v1434h136v-863l487 453h184l-528 -492l549 -532h-180l-512 494v-494h-136z" />
<glyph unicode="l" horiz-adv-x="421" d="M143 0v1495h136v-1495h-136z" />
<glyph unicode="m" horiz-adv-x="1736" d="M143 0v1024h136v-150q112 175 313 175q107 0 187.5 -48.5t123.5 -138.5q55 92 142.5 139.5t189.5 47.5q171 0 277 -110.5t106 -299.5v-639h-135v639q0 133 -69 206t-181 73q-128 0 -206.5 -85.5t-78.5 -265.5v-567h-135v639q0 134 -64.5 206.5t-175.5 72.5 q-58 0 -108.5 -19.5t-93 -60t-67.5 -110t-25 -161.5v-567h-136z" />
<glyph unicode="n" horiz-adv-x="1142" d="M143 0v1024h136v-160q115 185 344 185q186 0 293.5 -113.5t107.5 -306.5v-629h-135v629q0 137 -73 213t-206 76q-146 0 -238.5 -93.5t-92.5 -287.5v-537h-136z" />
<glyph unicode="o" horiz-adv-x="1241" d="M82 512q0 149 72 272.5t195.5 194t271.5 70.5q225 0 381.5 -155.5t156.5 -381.5t-156.5 -381.5t-381.5 -155.5q-148 0 -271.5 70.5t-195.5 194t-72 272.5zM217 512q0 -170 117 -288t287 -118t286.5 117.5t116.5 288.5t-116.5 288.5t-286.5 117.5t-287 -118t-117 -288z " />
<glyph unicode="p" d="M143 -410v1434h136v-201q66 106 173 166t240 60q143 0 264.5 -70.5t193 -194.5t71.5 -272t-71.5 -272t-193 -194.5t-264.5 -70.5q-133 0 -240 60t-173 166v-611h-136zM279 512q0 -171 116.5 -288.5t286.5 -117.5t286.5 117.5t116.5 288.5t-116.5 288.5t-286.5 117.5 t-286.5 -117.5t-116.5 -288.5z" />
<glyph unicode="q" d="M82 512q0 149 71.5 272.5t192.5 194t264 70.5q133 0 240.5 -60.5t173.5 -165.5v201h135v-1434h-135v611q-66 -105 -173.5 -165.5t-240.5 -60.5q-143 0 -264 70.5t-192.5 194t-71.5 272.5zM217 512q0 -170 117 -288t287 -118t286.5 117.5t116.5 288.5t-116.5 288.5 t-286.5 117.5t-287 -118t-117 -288z" />
<glyph unicode="r" horiz-adv-x="643" d="M143 0v1024h136v-170q94 186 323 186v-131q-65 0 -120.5 -18t-102 -56t-73.5 -106t-27 -160v-569h-136z" />
<glyph unicode="s" horiz-adv-x="929" d="M82 211l115 68q28 -79 103 -126t177 -47q65 0 115.5 15t85.5 53t35 96q0 51 -33 86.5t-85.5 55.5t-116.5 36.5t-128 38t-116.5 52t-85.5 85.5t-33 132q0 124 99 208.5t251 84.5q124 0 218.5 -56t139.5 -153l-112 -66q-30 73 -97.5 108.5t-148.5 35.5q-87 0 -151 -42 t-64 -120q0 -51 33 -86.5t85.5 -55.5t116.5 -36.5t128 -38t116.5 -52t85.5 -85.5t33 -132q0 -131 -103.5 -213t-267.5 -82q-147 0 -251 66t-144 170z" />
<glyph unicode="t" horiz-adv-x="768" d="M41 893v131h215v246l135 41v-287h295v-131h-295v-621q0 -84 32.5 -119.5t98.5 -36.5h27q58 0 137 3v-119q-73 -11 -133 -11q-117 -1 -189 41q-108 62 -108 242v621h-215z" />
<glyph unicode="u" horiz-adv-x="1142" d="M119 395v629h135v-629q0 -137 72.5 -213t205.5 -76q146 0 239 93.5t93 287.5v537h135v-1024h-135v160q-115 -185 -344 -185q-186 0 -293.5 113.5t-107.5 306.5z" />
<glyph unicode="v" horiz-adv-x="1044" d="M20 1024h144l358 -883l359 883h143l-420 -1024h-164z" />
<glyph unicode="w" horiz-adv-x="1576" d="M61 1024h140l252 -850l268 850h135l268 -850l252 850h140l-316 -1024h-147l-265 825l-264 -825h-147z" />
<glyph unicode="x" horiz-adv-x="1044" d="M41 0l401 530l-374 494h161l293 -387l293 387h162l-373 -494l400 -530h-162l-320 422l-319 -422h-162z" />
<glyph unicode="y" horiz-adv-x="1044" d="M20 1024h144l385 -858l332 858h143l-438 -1118q-60 -152 -170 -239q-99 -78 -217 -78q-13 0 -27 1v127q14 -1 27 -1q78 0 139 50q71 58 115 164l26 64z" />
<glyph unicode="z" horiz-adv-x="962" d="M102 0v90l570 803h-549v131h737v-90l-569 -803h590v-131h-779z" />
<glyph unicode="{" horiz-adv-x="724" d="M102 653v131q57 0 92 7t65 27.5t43 61t13 105.5v342q0 182 94.5 264.5t274.5 67.5v-131q-124 13 -178.5 -30t-54.5 -171v-342q0 -117 -40 -179.5t-120 -86.5q80 -24 120 -86.5t40 -179.5v-342q0 -128 54.5 -171t178.5 -30v-131q-180 -15 -274.5 67.5t-94.5 264.5v342 q0 65 -13 105.5t-43 61t-65 27t-92 6.5z" />
<glyph unicode="|" horiz-adv-x="462" d="M164 -410v1885h135v-1885h-135z" />
<glyph unicode="}" horiz-adv-x="724" d="M41 -90q124 -13 178.5 30t54.5 171v342q0 117 40 179.5t120 86.5q-80 24 -120 86.5t-40 179.5v342q0 128 -54.5 171t-178.5 30v131q180 15 274.5 -67.5t94.5 -264.5v-342q0 -65 13 -105.5t43 -61t65 -27.5t92 -7v-131q-57 0 -92 -6.5t-65 -27t-43 -61t-13 -105.5v-342 q0 -182 -94.5 -264.5t-274.5 -67.5v131z" />
<glyph unicode="~" horiz-adv-x="1216" d="M123 643q26 84 72 137.5t110.5 74t150 1t183.5 -81.5q78 -48 135 -65t95 -3t62 48.5t40 93.5l123 -57q-26 -84 -71.5 -137.5t-109 -75t-149 -1.5t-186.5 82q-101 63 -169 71t-104.5 -28.5t-58.5 -115.5z" />
<glyph unicode="&#xa1;" horiz-adv-x="471" d="M123 932q0 47 33 79.5t80 32.5t79.5 -32.5t32.5 -79.5t-32.5 -80t-79.5 -33t-80 33t-33 80zM154 0l30 635h103l30 -635v-410h-163v410z" />
<glyph unicode="&#xa2;" horiz-adv-x="1130" d="M82 717q0 150 70 272.5t193.5 193t275.5 70.5q55 0 96 -8l61 189h103l-70 -215q88 -32 154.5 -92.5t103.5 -141.5l-111 -63q-58 122 -186 172l-250 -770q50 -13 99 -13q114 0 204.5 54.5t141.5 146.5l112 -66q-63 -122 -185.5 -194t-272.5 -72q-63 0 -140 17l-63 -197 h-103l74 229q-141 62 -224 193t-83 295zM217 717q0 -117 58 -213t155 -148l246 762q-36 4 -55 4q-170 0 -287 -117.5t-117 -287.5z" />
<glyph unicode="&#xa3;" horiz-adv-x="1198" d="M82 0v139h192v453h-151v127h151v309q0 106 36 190t96.5 135.5t134 78t153.5 26.5q141 0 239.5 -72t151.5 -202l-116 -66q-74 201 -275 201q-116 0 -196 -73t-80 -218v-309h473v-127h-473v-453h749v-139h-1085z" />
<glyph unicode="&#xa4;" horiz-adv-x="1130" d="M82 299l143 143q-96 120 -96 275q0 154 96 274l-143 144l65 65l144 -143q121 94 274 94q154 0 275 -94l143 143l66 -65l-144 -144q96 -116 96 -274q0 -159 -96 -275l144 -143l-66 -66l-143 144q-121 -94 -275 -94q-153 0 -274 94l-144 -144zM264 717q0 -128 87 -215.5 t214 -87.5t214 87.5t87 215.5t-87 215.5t-214 87.5t-214 -87.5t-87 -215.5z" />
<glyph unicode="&#xa5;" horiz-adv-x="1177" d="M20 1434h162l428 -703l426 703h162l-442 -723h274v-119h-348l-2 -4v-119h350v-119h-350v-350h-143v350h-387v119h387v123h-387v119h313z" />
<glyph unicode="&#xa6;" horiz-adv-x="462" d="M164 348h135v-758h-135v758zM164 717v758h135v-758h-135z" />
<glyph unicode="&#xa7;" horiz-adv-x="1044" d="M123 694q0 152 145 256q-84 84 -84 205q0 128 99 215.5t252 87.5q132 0 228 -64.5t142 -181.5l-110 -63q-35 90 -103.5 134t-156.5 44t-152 -45t-64 -127q0 -56 47 -105t91.5 -72t148.5 -69q23 -11 35 -16q56 -25 96 -46.5t85.5 -54.5t74 -68t47.5 -84t19 -105 q0 -73 -35 -138t-97 -112q91 -88 91 -211q0 -129 -101.5 -216t-267.5 -87q-162 0 -270.5 72t-157.5 200l115 66q64 -207 313 -207q102 0 167.5 44.5t65.5 127.5q0 36 -19 68.5t-41.5 54.5t-73.5 49.5t-80 40.5t-95 41q-22 9 -33 14q-70 29 -120 57.5t-99.5 70.5t-75.5 98.5 t-26 125.5zM258 694q0 -44 18 -81t53.5 -65t74 -48.5t92.5 -40.5q155 -57 231 -101q100 70 100 177q0 45 -18.5 82t-55 66t-75.5 50t-94 43q-146 57 -215 98q-111 -67 -111 -180z" />
<glyph unicode="&#xa8;" horiz-adv-x="655" d="M41 1270q0 38 27 65t65 27t65 -27t27 -65t-27 -65t-65 -27t-65 27t-27 65zM430 1270q0 38 27 65t65 27t65 -27t27 -65t-27 -65t-65 -27t-65 27t-27 65z" />
<glyph unicode="&#xa9;" horiz-adv-x="1646" d="M82 717q0 151 58.5 288.5t157.5 236.5t236.5 157.5t288.5 58.5q202 0 372.5 -99t270 -269.5t99.5 -372.5t-99.5 -372.5t-270 -270t-372.5 -99.5t-372.5 99.5t-269.5 270t-99 372.5zM143 717q0 -140 54 -266.5t145 -218t217 -145.5t264 -54t264 54t217 145.5t145 218 t54 266.5t-54 266.5t-145 218t-217 145.5t-264 54t-264 -54t-217 -145.5t-145 -218t-54 -266.5zM432 717q0 165 115 279t282 114q109 0 198.5 -51.5t137.5 -138.5l-112 -66q-28 63 -90 96t-134 33q-118 0 -191 -79t-73 -187t73 -187t191 -79q73 0 135.5 34t90.5 97l112 -68 q-48 -87 -138.5 -138.5t-199.5 -51.5q-167 0 -282 114t-115 279z" />
<glyph unicode="&#xab;" horiz-adv-x="1007" d="M143 633l226 368h168l-226 -368l226 -369h-168zM471 633l225 368h168l-225 -368l225 -369h-168z" />
<glyph unicode="&#xac;" horiz-adv-x="1064" d="M123 651v131h819v-368h-135v237h-684z" />
<glyph unicode="&#xad;" horiz-adv-x="1064" d="M164 567v131h737v-131h-737z" />
<glyph unicode="&#xae;" horiz-adv-x="1646" d="M82 717q0 151 58.5 288.5t157.5 236.5t236.5 157.5t288.5 58.5q202 0 372.5 -99t270 -269.5t99.5 -372.5t-99.5 -372.5t-270 -270t-372.5 -99.5t-372.5 99.5t-269.5 270t-99 372.5zM143 717q0 -140 54 -266.5t145 -218t217 -145.5t264 -54t264 54t217 145.5t145 218 t54 266.5t-54 266.5t-145 218t-217 145.5t-264 54t-264 -54t-217 -145.5t-145 -218t-54 -266.5zM598 338v758h233q136 0 211.5 -71t75.5 -173q0 -163 -139 -219l160 -295h-142l-145 270h-21h-106v-270h-127zM725 731h115q72 0 111.5 33t39.5 88q0 56 -39.5 88.5t-111.5 32.5 h-115v-242z" />
<glyph unicode="&#xaf;" horiz-adv-x="614" d="M41 1188v119h532v-119h-532z" />
<glyph unicode="&#xb0;" horiz-adv-x="790" d="M82 1352q0 129 89.5 218t223.5 89t224 -89t90 -218t-89 -218.5t-225 -89.5q-134 0 -223.5 89.5t-89.5 218.5zM213 1352q0 -78 51 -131.5t131 -53.5t131.5 53.5t51.5 131.5t-51.5 131t-131.5 53t-131 -53t-51 -131z" />
<glyph unicode="&#xb1;" horiz-adv-x="1105" d="M123 184v131h860v-131h-860zM123 784v131h364v334h131v-334h365v-131h-365v-333h-131v333h-364z" />
<glyph unicode="&#xb4;" horiz-adv-x="409" d="M41 1167h131l197 267h-164z" />
<glyph unicode="&#xb5;" horiz-adv-x="1241" d="M143 -410v1434h136v-629q0 -137 72.5 -213t205.5 -76q146 0 239 93.5t93 287.5v537h135v-819q0 -34 21 -54t55 -20h80v-131h-97q-77 0 -128.5 45t-63.5 121q-113 -191 -346 -191q-175 0 -266 105v-490h-136z" />
<glyph unicode="&#xb6;" horiz-adv-x="1187" d="M82 1024q0 170 120 290t290 120h614v-127h-123v-1717h-131v1717h-229v-1717h-131v1024q-170 0 -290 120.5t-120 289.5z" />
<glyph unicode="&#xb7;" horiz-adv-x="471" d="M123 717q0 47 33 79.5t80 32.5t79.5 -32.5t32.5 -79.5t-32.5 -80t-79.5 -33t-80 33t-33 80z" />
<glyph unicode="&#xb8;" horiz-adv-x="501" d="M41 -332q147 -12 224 8.5t77 65.5q0 78 -190 84v174h118v-92q88 -15 139.5 -59t51.5 -107q0 -208 -420 -184v110z" />
<glyph unicode="&#xbb;" horiz-adv-x="1007" d="M143 264l226 369l-226 368h168l226 -368l-226 -369h-168zM471 264l225 369l-225 368h168l225 -368l-225 -369h-168z" />
<glyph unicode="&#xbc;" horiz-adv-x="1681" d="M20 1348l238 86h109v-820h-127v680l-187 -55zM260 0l819 1434h123l-819 -1434h-123zM987 154v118l305 547h138l-304 -547h283v197h127v-197h104v-118h-104v-154h-127v154h-422z" />
<glyph unicode="&#xbd;" horiz-adv-x="1652" d="M20 1348l238 86h109v-820h-127v680l-187 -55zM260 0l819 1434h123l-819 -1434h-123zM1018 653q37 92 110 141.5t175 49.5q123 0 198.5 -72t75.5 -178q0 -141 -127 -256l-242 -215h385v-123h-573v104l344 316q41 37 63.5 84t22.5 90q0 58 -39.5 92.5t-107.5 34.5 q-127 0 -179 -127z" />
<glyph unicode="&#xbe;" horiz-adv-x="1896" d="M51 762l107 61q50 -110 184 -110q83 0 127.5 38t44.5 103q0 64 -46.5 102.5t-125.5 38.5h-8l-64 97l185 219h-377v123h528v-123l-182 -217q102 -20 159.5 -83.5t57.5 -156.5q0 -119 -82 -191.5t-217 -72.5q-103 0 -177.5 44.5t-113.5 127.5zM475 0l819 1434h123 l-819 -1434h-123zM1202 154v118l305 547h138l-304 -547h283v197h127v-197h104v-118h-104v-154h-127v154h-422z" />
<glyph unicode="&#xbf;" horiz-adv-x="1089" d="M123 -55q0 64 21.5 121.5t56.5 102t76.5 86.5t83.5 83.5t77 84t56.5 97.5t21.5 115h143q0 -73 -21.5 -137t-56.5 -111t-76.5 -90t-83.5 -82.5t-77 -79t-56.5 -88t-21.5 -102.5q0 -80 40 -135.5t103.5 -80t145.5 -24.5q115 0 197.5 51t113.5 156l121 -68 q-47 -138 -164.5 -208t-267.5 -70q-115 0 -211 41t-158.5 129t-62.5 209zM475 932q0 47 33 79.5t80 32.5t79.5 -32.5t32.5 -79.5t-32.5 -80t-79.5 -33t-80 33t-33 80z" />
<glyph unicode="&#xc0;" horiz-adv-x="1290" d="M20 0l551 1434h148l551 -1434h-152l-133 352h-680l-133 -352h-152zM356 487h578l-289 768zM440 1843h164l164 -266h-131z" />
<glyph unicode="&#xc1;" horiz-adv-x="1290" d="M20 0l551 1434h148l551 -1434h-152l-133 352h-680l-133 -352h-152zM356 487h578l-289 768zM543 1577l164 266h163l-196 -266h-131z" />
<glyph unicode="&#xc2;" horiz-adv-x="1290" d="M20 0l551 1434h148l551 -1434h-152l-133 352h-680l-133 -352h-152zM348 1577l217 266h160l217 -266h-154l-143 178l-143 -178h-154zM356 487h578l-289 768z" />
<glyph unicode="&#xc3;" horiz-adv-x="1290" d="M20 0l551 1434h148l551 -1434h-152l-133 352h-680l-133 -352h-152zM356 487h578l-289 768zM358 1597q0 91 25 148.5t66.5 75.5t92.5 6.5t105 -51.5q38 -29 60 -43t45 -22t34.5 1.5t19 36t7.5 74.5h119q0 -121 -43 -180.5t-107.5 -55.5t-136.5 58q-37 28 -59.5 42.5 t-46 22.5t-35.5 -2t-19.5 -36.5t-7.5 -74.5h-119z" />
<glyph unicode="&#xc4;" horiz-adv-x="1290" d="M20 0l551 1434h148l551 -1434h-152l-133 352h-680l-133 -352h-152zM356 487h578l-289 768zM358 1679q0 38 27.5 65.5t65.5 27.5t65 -27.5t27 -65.5t-27 -65t-65 -27t-65.5 27t-27.5 65zM748 1679q0 38 27 65.5t65 27.5t65 -27.5t27 -65.5t-27 -65t-65 -27t-65 27t-27 65z " />
<glyph unicode="&#xc5;" horiz-adv-x="1290" d="M20 0l527 1370q-56 25 -87.5 74t-31.5 112q0 89 60.5 147t156.5 58q97 0 157 -58t60 -147q0 -63 -31.5 -112t-87.5 -74l527 -1370h-152l-133 352h-680l-133 -352h-152zM356 487h578l-289 768zM541 1556q0 -44 27.5 -72t76.5 -28q51 0 79 28t28 72t-28 72.5t-79 28.5 q-49 0 -76.5 -28.5t-27.5 -72.5z" />
<glyph unicode="&#xc6;" horiz-adv-x="1802" d="M0 0l297 485v2h2l580 947h831v-136h-645v-507h614v-136h-614v-520h655v-135h-798v352h-543l-215 -352h-164zM461 487h461v756z" />
<glyph unicode="&#xc7;" horiz-adv-x="1525" d="M82 717q0 152 56 288.5t154.5 236t239 158t302.5 58.5q198 0 364 -95.5t256 -256.5l-127 -74q-67 130 -200 208.5t-293 78.5q-177 0 -317 -81t-216 -218t-76 -303t76 -303t216 -218t317 -81q160 0 293.5 78t199.5 208l127 -71q-82 -151 -232 -245.5t-333 -107.5v-69 q88 -15 139 -59t51 -107q0 -208 -420 -184v110q147 -12 224.5 8.5t77.5 65.5q0 78 -191 84v151q-199 15 -357 117.5t-244.5 266t-86.5 356.5z" />
<glyph unicode="&#xc8;" horiz-adv-x="1085" d="M164 0v1434h829v-136h-686v-507h635v-136h-635v-520h697v-135h-840zM375 1843h164l163 -266h-131z" />
<glyph unicode="&#xc9;" horiz-adv-x="1085" d="M164 0v1434h829v-136h-686v-507h635v-136h-635v-520h697v-135h-840zM477 1577l164 266h164l-197 -266h-131z" />
<glyph unicode="&#xca;" horiz-adv-x="1085" d="M164 0v1434h829v-136h-686v-507h635v-136h-635v-520h697v-135h-840zM283 1577l217 266h159l218 -266h-154l-143 178l-144 -178h-153z" />
<glyph unicode="&#xcb;" horiz-adv-x="1085" d="M164 0v1434h829v-136h-686v-507h635v-136h-635v-520h697v-135h-840zM293 1679q0 38 27 65.5t65 27.5t65 -27.5t27 -65.5t-27 -65t-65 -27t-65 27t-27 65zM682 1679q0 38 27 65.5t65 27.5t65 -27.5t27 -65.5t-27 -65t-65 -27t-65 27t-27 65z" />
<glyph unicode="&#xcc;" horiz-adv-x="471" d="M31 1843l196 -266h131l-163 266h-164zM164 0v1434h143v-1434h-143z" />
<glyph unicode="&#xcd;" horiz-adv-x="471" d="M133 1577h131l197 266h-164zM164 0v1434h143v-1434h-143z" />
<glyph unicode="&#xce;" horiz-adv-x="471" d="M-61 1577l217 266h159l217 -266h-153l-143 178l-144 -178h-153zM164 0v1434h143v-1434h-143z" />
<glyph unicode="&#xcf;" horiz-adv-x="471" d="M-51 1679q0 38 27 65.5t65 27.5t65 -27.5t27 -65.5t-27 -65t-65 -27t-65 27t-27 65zM164 0v1434h143v-1434h-143zM338 1679q0 38 27 65.5t65 27.5t65 -27.5t27 -65.5t-27 -65t-65 -27t-65 27t-27 65z" />
<glyph unicode="&#xd0;" horiz-adv-x="1515" d="M61 651v131h144v652h553q145 0 271.5 -56.5t215 -153.5t139 -228.5t50.5 -278.5t-50.5 -278.5t-139 -228.5t-215 -153.5t-271.5 -56.5h-553v651h-144zM348 135h410q156 0 279.5 78.5t190 211t66.5 292.5t-66.5 292.5t-190 210.5t-279.5 78h-410v-516h451v-131h-451v-516z " />
<glyph unicode="&#xd1;" horiz-adv-x="1392" d="M164 0v1434h123l798 -1168v1168h144v-1434h-123l-799 1167v-1167h-143zM410 1597q0 91 25 148.5t66 75.5t92 6.5t105 -51.5q38 -29 60 -43t45 -22t34.5 1.5t19 36t7.5 74.5h119q0 -121 -43 -180.5t-107.5 -55.5t-136.5 58q-37 28 -59.5 42.5t-46 22.5t-35.5 -2 t-19.5 -36.5t-7.5 -74.5h-118z" />
<glyph unicode="&#xd2;" horiz-adv-x="1646" d="M82 717q0 151 57.5 288t156 236.5t236 158t291.5 58.5t292 -58.5t236.5 -158t156 -236.5t57.5 -288q0 -202 -97.5 -372.5t-268.5 -270t-376 -99.5q-154 0 -291.5 58.5t-236 158t-156 237t-57.5 288.5zM225 717q0 -165 78 -303t215.5 -218.5t304.5 -80.5t304.5 80.5 t215.5 218.5t78 303t-78 303t-215.5 218.5t-304.5 80.5t-304.5 -80.5t-215.5 -218.5t-78 -303zM618 1843l197 -266h131l-164 266h-164z" />
<glyph unicode="&#xd3;" horiz-adv-x="1646" d="M82 717q0 151 57.5 288t156 236.5t236 158t291.5 58.5t292 -58.5t236.5 -158t156 -236.5t57.5 -288q0 -202 -97.5 -372.5t-268.5 -270t-376 -99.5q-154 0 -291.5 58.5t-236 158t-156 237t-57.5 288.5zM225 717q0 -165 78 -303t215.5 -218.5t304.5 -80.5t304.5 80.5 t215.5 218.5t78 303t-78 303t-215.5 218.5t-304.5 80.5t-304.5 -80.5t-215.5 -218.5t-78 -303zM721 1577h131l197 266h-164z" />
<glyph unicode="&#xd4;" horiz-adv-x="1646" d="M82 717q0 151 57.5 288t156 236.5t236 158t291.5 58.5t292 -58.5t236.5 -158t156 -236.5t57.5 -288q0 -202 -97.5 -372.5t-268.5 -270t-376 -99.5q-154 0 -291.5 58.5t-236 158t-156 237t-57.5 288.5zM225 717q0 -165 78 -303t215.5 -218.5t304.5 -80.5t304.5 80.5 t215.5 218.5t78 303t-78 303t-215.5 218.5t-304.5 80.5t-304.5 -80.5t-215.5 -218.5t-78 -303zM526 1577l217 266h160l217 -266h-153l-144 178l-143 -178h-154z" />
<glyph unicode="&#xd5;" horiz-adv-x="1646" d="M82 717q0 151 57.5 288t156 236.5t236 158t291.5 58.5t292 -58.5t236.5 -158t156 -236.5t57.5 -288q0 -202 -97.5 -372.5t-268.5 -270t-376 -99.5q-154 0 -291.5 58.5t-236 158t-156 237t-57.5 288.5zM225 717q0 -165 78 -303t215.5 -218.5t304.5 -80.5t304.5 80.5 t215.5 218.5t78 303t-78 303t-215.5 218.5t-304.5 80.5t-304.5 -80.5t-215.5 -218.5t-78 -303zM537 1597q0 91 25 148.5t66 75.5t92 6.5t105 -51.5q38 -29 60 -43t45 -22t34.5 1.5t19 36t7.5 74.5h119q0 -121 -43 -180.5t-107.5 -55.5t-136.5 58q-37 28 -59.5 42.5t-46 22.5 t-35.5 -2t-19.5 -36.5t-7.5 -74.5h-118z" />
<glyph unicode="&#xd6;" horiz-adv-x="1646" d="M82 717q0 151 57.5 288t156 236.5t236 158t291.5 58.5t292 -58.5t236.5 -158t156 -236.5t57.5 -288q0 -202 -97.5 -372.5t-268.5 -270t-376 -99.5q-154 0 -291.5 58.5t-236 158t-156 237t-57.5 288.5zM225 717q0 -165 78 -303t215.5 -218.5t304.5 -80.5t304.5 80.5 t215.5 218.5t78 303t-78 303t-215.5 218.5t-304.5 80.5t-304.5 -80.5t-215.5 -218.5t-78 -303zM537 1679q0 38 27 65.5t65 27.5t65 -27.5t27 -65.5t-27 -65t-65 -27t-65 27t-27 65zM926 1679q0 38 27 65.5t65 27.5t65 -27.5t27 -65.5t-27 -65t-65 -27t-65 27t-27 65z" />
<glyph unicode="&#xd7;" horiz-adv-x="964" d="M102 426l291 291l-291 291l93 86l288 -287l287 287l92 -86l-291 -291l291 -291l-92 -86l-287 289l-288 -289z" />
<glyph unicode="&#xd8;" horiz-adv-x="1667" d="M102 717q0 151 57.5 288t156 236.5t236.5 158t292 58.5q247 0 442 -143l100 119l97 -56l-115 -133q103 -103 160 -239t57 -289q0 -151 -57.5 -288.5t-156 -237t-236 -158t-291.5 -58.5q-243 0 -441 142l-100 -117l-96 55l115 133q-104 103 -162 239.5t-58 289.5zM246 717 q0 -121 44 -229.5t122 -192.5l782 913q-155 111 -350 111q-167 0 -304.5 -80.5t-215.5 -218.5t-78 -303zM496 223q152 -108 348 -108q167 0 304.5 80.5t215.5 218.5t78 303q0 246 -166 420z" />
<glyph unicode="&#xd9;" horiz-adv-x="1351" d="M143 487v947h144v-947q0 -172 102.5 -272t286.5 -100t286.5 100t102.5 272v947h143v-947q0 -233 -147.5 -372.5t-384.5 -139.5t-385 139.5t-148 372.5zM471 1843l197 -266h131l-164 266h-164z" />
<glyph unicode="&#xda;" horiz-adv-x="1351" d="M143 487v947h144v-947q0 -172 102.5 -272t286.5 -100t286.5 100t102.5 272v947h143v-947q0 -233 -147.5 -372.5t-384.5 -139.5t-385 139.5t-148 372.5zM573 1577h132l196 266h-164z" />
<glyph unicode="&#xdb;" horiz-adv-x="1351" d="M143 487v947h144v-947q0 -172 102.5 -272t286.5 -100t286.5 100t102.5 272v947h143v-947q0 -233 -147.5 -372.5t-384.5 -139.5t-385 139.5t-148 372.5zM379 1577l217 266h160l217 -266h-154l-143 178l-144 -178h-153z" />
<glyph unicode="&#xdc;" horiz-adv-x="1351" d="M143 487v947h144v-947q0 -172 102.5 -272t286.5 -100t286.5 100t102.5 272v947h143v-947q0 -233 -147.5 -372.5t-384.5 -139.5t-385 139.5t-148 372.5zM389 1679q0 38 27 65.5t65 27.5t65 -27.5t27 -65.5t-27 -65t-65 -27t-65 27t-27 65zM778 1679q0 38 27 65.5t65 27.5 t65.5 -27.5t27.5 -65.5t-27.5 -65t-65.5 -27t-65 27t-27 65z" />
<glyph unicode="&#xdd;" horiz-adv-x="1218" d="M20 1434h162l428 -703l426 703h162l-518 -846v-588h-143v592zM500 1577l164 266h163l-196 -266h-131z" />
<glyph unicode="&#xde;" horiz-adv-x="1208" d="M164 0v1434h143v-267h369q194 0 322 -128.5t128 -321.5q0 -192 -128.5 -321.5t-321.5 -129.5h-369v-266h-143zM307 401h369q133 0 220 89.5t87 226.5q0 138 -86.5 226.5t-220.5 88.5h-369v-631z" />
<glyph unicode="&#xdf;" horiz-adv-x="1056" d="M143 0v1055q0 188 112 295.5t288 107.5q165 0 261.5 -92t96.5 -229q0 -44 -18.5 -86t-45 -74.5t-53 -61t-45 -57t-18.5 -51.5q0 -37 30.5 -80.5t73.5 -87.5t86.5 -93.5t74 -117t30.5 -139.5q0 -145 -112 -226.5t-312 -68.5v123q289 -17 289 172q0 55 -30.5 112t-73.5 106 t-86.5 97t-74 101t-30.5 102q0 34 18.5 69.5t45 65.5l53 60t45 65.5t18.5 69.5q0 90 -61.5 140t-161.5 50q-51 0 -96 -14t-84 -44.5t-61.5 -85t-22.5 -128.5v-1055h-136z" />
<glyph unicode="&#xe0;" d="M82 512q0 149 71.5 272.5t192.5 194t264 70.5q133 0 240.5 -60.5t173.5 -165.5v201h135v-1024h-135v201q-66 -105 -173.5 -165.5t-240.5 -60.5q-143 0 -264 70.5t-192.5 194t-71.5 272.5zM217 512q0 -170 117 -288t287 -118t286.5 117.5t116.5 288.5t-116.5 288.5 t-286.5 117.5t-287 -118t-117 -288zM420 1434h164l164 -267h-132z" />
<glyph unicode="&#xe1;" d="M82 512q0 149 71.5 272.5t192.5 194t264 70.5q133 0 240.5 -60.5t173.5 -165.5v201h135v-1024h-135v201q-66 -105 -173.5 -165.5t-240.5 -60.5q-143 0 -264 70.5t-192.5 194t-71.5 272.5zM217 512q0 -170 117 -288t287 -118t286.5 117.5t116.5 288.5t-116.5 288.5 t-286.5 117.5t-287 -118t-117 -288zM522 1167l164 267h164l-197 -267h-131z" />
<glyph unicode="&#xe2;" d="M82 512q0 149 71.5 272.5t192.5 194t264 70.5q133 0 240.5 -60.5t173.5 -165.5v201h135v-1024h-135v201q-66 -105 -173.5 -165.5t-240.5 -60.5q-143 0 -264 70.5t-192.5 194t-71.5 272.5zM217 512q0 -170 117 -288t287 -118t286.5 117.5t116.5 288.5t-116.5 288.5 t-286.5 117.5t-287 -118t-117 -288zM328 1167l217 267h160l217 -267h-154l-143 179l-144 -179h-153z" />
<glyph unicode="&#xe3;" d="M82 512q0 149 71.5 272.5t192.5 194t264 70.5q133 0 240.5 -60.5t173.5 -165.5v201h135v-1024h-135v201q-66 -105 -173.5 -165.5t-240.5 -60.5q-143 0 -264 70.5t-192.5 194t-71.5 272.5zM217 512q0 -170 117 -288t287 -118t286.5 117.5t116.5 288.5t-116.5 288.5 t-286.5 117.5t-287 -118t-117 -288zM338 1188q0 73 16.5 125t44.5 77.5t65 31t78.5 -9t84.5 -46.5q38 -29 60 -43t45 -22t34.5 1.5t19 36t7.5 74.5h118q0 -121 -42.5 -180.5t-107 -55.5t-136.5 58q-38 28 -60 42.5t-45.5 22.5t-35.5 -1.5t-19.5 -36t-7.5 -74.5h-119z" />
<glyph unicode="&#xe4;" d="M82 512q0 149 71.5 272.5t192.5 194t264 70.5q133 0 240.5 -60.5t173.5 -165.5v201h135v-1024h-135v201q-66 -105 -173.5 -165.5t-240.5 -60.5q-143 0 -264 70.5t-192.5 194t-71.5 272.5zM217 512q0 -170 117 -288t287 -118t286.5 117.5t116.5 288.5t-116.5 288.5 t-286.5 117.5t-287 -118t-117 -288zM338 1270q0 38 27 65t65 27t65 -27t27 -65t-27 -65t-65 -27t-65 27t-27 65zM727 1270q0 38 27 65t65 27t65 -27t27 -65t-27 -65t-65 -27t-65 27t-27 65z" />
<glyph unicode="&#xe5;" d="M82 512q0 149 71.5 272.5t192.5 194t264 70.5q133 0 240.5 -60.5t173.5 -165.5v201h135v-1024h-135v201q-66 -105 -173.5 -165.5t-240.5 -60.5q-143 0 -264 70.5t-192.5 194t-71.5 272.5zM217 512q0 -170 117 -288t287 -118t286.5 117.5t116.5 288.5t-116.5 288.5 t-286.5 117.5t-287 -118t-117 -288zM408 1331q0 89 60.5 147t156.5 58q97 0 157 -58t60 -147t-60 -147t-157 -58q-96 0 -156.5 58t-60.5 147zM520 1331q0 -44 27.5 -72t77.5 -28q51 0 78.5 28t27.5 72q0 45 -27.5 73t-78.5 28q-49 0 -77 -28.5t-28 -72.5z" />
<glyph unicode="&#xe6;" horiz-adv-x="2134" d="M82 512q0 149 71.5 272.5t192.5 194t264 70.5q133 0 240.5 -60.5t173.5 -165.5v201h135v-205q60 108 163.5 169t240.5 61q117 0 213 -45t157.5 -120.5t95 -172t33.5 -203.5q0 -24 -4 -64h-895q20 -156 127 -247t269 -91q121 0 207 48t130 127l119 -70 q-67 -108 -181.5 -172t-256.5 -64q-143 0 -249 58.5t-169 165.5v-199h-135v201q-66 -105 -173.5 -165.5t-240.5 -60.5q-143 0 -264 70.5t-192.5 194t-71.5 272.5zM217 512q0 -170 117 -288t287 -118t286.5 117.5t116.5 288.5t-116.5 288.5t-286.5 117.5t-287 -118t-117 -288 zM1163 575h760q-18 163 -121 253t-246 90q-164 0 -269 -94.5t-124 -248.5z" />
<glyph unicode="&#xe7;" horiz-adv-x="1130" d="M82 512q0 112 41 211.5t112 171t171.5 113t214.5 41.5q151 0 271.5 -73t176.5 -196l-111 -63q-42 92 -132.5 146.5t-204.5 54.5q-170 0 -287 -118t-117 -288t117 -288t287 -118q114 0 204.5 54.5t141.5 146.5l112 -65q-57 -111 -165 -182t-240 -83v-69q88 -15 139 -59 t51 -107q0 -208 -420 -184v110q147 -12 224 8.5t77 65.5q0 78 -190 84v154q-207 23 -340 172.5t-133 359.5z" />
<glyph unicode="&#xe8;" horiz-adv-x="1196" d="M82 512q0 150 66.5 272t189.5 193.5t278 71.5q114 0 211 -45t161 -120t100 -172.5t36 -203.5q0 -24 -4 -64h-899q22 -156 133 -247t275 -91q116 0 200.5 48.5t128.5 126.5l119 -70q-67 -108 -183.5 -172t-266.5 -64q-241 0 -393 151.5t-152 385.5zM221 575h764 q-21 162 -125.5 252.5t-243.5 90.5q-159 0 -266.5 -95t-128.5 -248zM399 1434h164l164 -267h-131z" />
<glyph unicode="&#xe9;" horiz-adv-x="1196" d="M82 512q0 150 66.5 272t189.5 193.5t278 71.5q114 0 211 -45t161 -120t100 -172.5t36 -203.5q0 -24 -4 -64h-899q22 -156 133 -247t275 -91q116 0 200.5 48.5t128.5 126.5l119 -70q-67 -108 -183.5 -172t-266.5 -64q-241 0 -393 151.5t-152 385.5zM221 575h764 q-21 162 -125.5 252.5t-243.5 90.5q-159 0 -266.5 -95t-128.5 -248zM502 1167l164 267h163l-196 -267h-131z" />
<glyph unicode="&#xea;" horiz-adv-x="1196" d="M82 512q0 150 66.5 272t189.5 193.5t278 71.5q114 0 211 -45t161 -120t100 -172.5t36 -203.5q0 -24 -4 -64h-899q22 -156 133 -247t275 -91q116 0 200.5 48.5t128.5 126.5l119 -70q-67 -108 -183.5 -172t-266.5 -64q-241 0 -393 151.5t-152 385.5zM221 575h764 q-21 162 -125.5 252.5t-243.5 90.5q-159 0 -266.5 -95t-128.5 -248zM307 1167l217 267h160l217 -267h-153l-144 179l-143 -179h-154z" />
<glyph unicode="&#xeb;" horiz-adv-x="1196" d="M82 512q0 150 66.5 272t189.5 193.5t278 71.5q114 0 211 -45t161 -120t100 -172.5t36 -203.5q0 -24 -4 -64h-899q22 -156 133 -247t275 -91q116 0 200.5 48.5t128.5 126.5l119 -70q-67 -108 -183.5 -172t-266.5 -64q-241 0 -393 151.5t-152 385.5zM221 575h764 q-21 162 -125.5 252.5t-243.5 90.5q-159 0 -266.5 -95t-128.5 -248zM317 1270q0 38 27.5 65t65.5 27t65 -27t27 -65t-27 -65t-65 -27t-65.5 27t-27.5 65zM707 1270q0 38 27 65t65 27t65 -27t27 -65t-27 -65t-65 -27t-65 27t-27 65z" />
<glyph unicode="&#xec;" horiz-adv-x="421" d="M8 1434l135 -267h131l-102 267h-164zM143 0v1024h136v-1024h-136z" />
<glyph unicode="&#xed;" horiz-adv-x="421" d="M143 0v1024h136v-1024h-136zM150 1167h131l135 267h-164z" />
<glyph unicode="&#xee;" horiz-adv-x="421" d="M-45 1167l176 267h160l176 -267h-154l-102 156l-102 -156h-154zM143 0v1024h136v-1024h-136z" />
<glyph unicode="&#xef;" horiz-adv-x="421" d="M-25 1270q0 38 27.5 65t65.5 27t65 -27t27 -65t-27 -65t-65 -27t-65.5 27t-27.5 65zM143 0v1024h136v-1024h-136zM262 1270q0 38 27 65t65 27t65 -27t27 -65t-27 -65t-65 -27t-65 27t-27 65z" />
<glyph unicode="&#xf0;" horiz-adv-x="1200" d="M82 471q0 142 71 254t184 170.5t243 58.5q88 0 163 -32l-182 243l-229 -141v123l168 102l-138 185h158l88 -117l230 141v-123l-168 -102l354 -475q94 -129 94 -287q0 -111 -42.5 -205t-114 -157t-165 -98.5t-196.5 -35.5t-196.5 35.5t-165 98.5t-114 157t-42.5 205z M217 471q0 -110 53.5 -194.5t140 -127.5t189.5 -43t189.5 43t140 127.5t53.5 194.5q0 130 -61 211q-108 145 -318 145q-167 0 -277 -98t-110 -258z" />
<glyph unicode="&#xf1;" horiz-adv-x="1142" d="M143 0v1024h136v-160q115 185 344 185q186 0 293.5 -113.5t107.5 -306.5v-629h-135v629q0 137 -73 213t-206 76q-146 0 -238.5 -93.5t-92.5 -287.5v-537h-136zM307 1188q0 73 16.5 125t44.5 77.5t65 31t78.5 -9t84.5 -46.5q38 -29 60 -43t45 -22t34.5 1.5t19 36t7.5 74.5 h119q0 -121 -43 -180.5t-107.5 -55.5t-136.5 58q-38 28 -60 42.5t-45.5 22.5t-35.5 -1.5t-19.5 -36t-7.5 -74.5h-119z" />
<glyph unicode="&#xf2;" horiz-adv-x="1241" d="M82 512q0 149 72 272.5t195.5 194t271.5 70.5q225 0 381.5 -155.5t156.5 -381.5t-156.5 -381.5t-381.5 -155.5q-148 0 -271.5 70.5t-195.5 194t-72 272.5zM217 512q0 -170 117 -288t287 -118t286.5 117.5t116.5 288.5t-116.5 288.5t-286.5 117.5t-287 -118t-117 -288z M416 1434l196 -267h131l-163 267h-164z" />
<glyph unicode="&#xf3;" horiz-adv-x="1241" d="M82 512q0 149 72 272.5t195.5 194t271.5 70.5q225 0 381.5 -155.5t156.5 -381.5t-156.5 -381.5t-381.5 -155.5q-148 0 -271.5 70.5t-195.5 194t-72 272.5zM217 512q0 -170 117 -288t287 -118t286.5 117.5t116.5 288.5t-116.5 288.5t-286.5 117.5t-287 -118t-117 -288z M518 1167h131l197 267h-164z" />
<glyph unicode="&#xf4;" horiz-adv-x="1241" d="M82 512q0 149 72 272.5t195.5 194t271.5 70.5q225 0 381.5 -155.5t156.5 -381.5t-156.5 -381.5t-381.5 -155.5q-148 0 -271.5 70.5t-195.5 194t-72 272.5zM217 512q0 -170 117 -288t287 -118t286.5 117.5t116.5 288.5t-116.5 288.5t-286.5 117.5t-287 -118t-117 -288z M324 1167l217 267h159l218 -267h-154l-143 179l-144 -179h-153z" />
<glyph unicode="&#xf5;" horiz-adv-x="1241" d="M82 512q0 149 72 272.5t195.5 194t271.5 70.5q225 0 381.5 -155.5t156.5 -381.5t-156.5 -381.5t-381.5 -155.5q-148 0 -271.5 70.5t-195.5 194t-72 272.5zM217 512q0 -170 117 -288t287 -118t286.5 117.5t116.5 288.5t-116.5 288.5t-286.5 117.5t-287 -118t-117 -288z M334 1188q0 73 16.5 125t44.5 77.5t65 31t78.5 -9t84.5 -46.5q38 -29 59.5 -43t45 -22t34.5 1.5t18.5 36t7.5 74.5h119q0 -121 -42.5 -180.5t-107 -55.5t-136.5 58q-38 28 -60 42.5t-45.5 22.5t-35.5 -1.5t-19.5 -36t-7.5 -74.5h-119z" />
<glyph unicode="&#xf6;" horiz-adv-x="1241" d="M82 512q0 149 72 272.5t195.5 194t271.5 70.5q225 0 381.5 -155.5t156.5 -381.5t-156.5 -381.5t-381.5 -155.5q-148 0 -271.5 70.5t-195.5 194t-72 272.5zM217 512q0 -170 117 -288t287 -118t286.5 117.5t116.5 288.5t-116.5 288.5t-286.5 117.5t-287 -118t-117 -288z M334 1270q0 38 27 65t65 27t65 -27t27 -65t-27 -65t-65 -27t-65 27t-27 65zM723 1270q0 38 27 65t65 27t65 -27t27 -65t-27 -65t-65 -27t-65 27t-27 65z" />
<glyph unicode="&#xf7;" horiz-adv-x="1187" d="M123 651v131h942v-131h-942zM481 334q0 47 33 79.5t80 32.5t80 -32.5t33 -79.5t-33 -80t-80 -33t-80 33t-33 80zM481 1100q0 47 33 79.5t80 32.5t80 -32.5t33 -79.5t-33 -80t-80 -33t-80 33t-33 80z" />
<glyph unicode="&#xf8;" horiz-adv-x="1241" d="M82 512q0 149 72 272.5t195.5 194t271.5 70.5q180 0 323 -105l80 90l82 -47l-92 -104q145 -155 145 -371q0 -226 -156.5 -381.5t-381.5 -155.5q-181 0 -324 105l-80 -90l-82 47l92 104q-145 155 -145 371zM217 512q0 -156 100 -270l537 602q-104 74 -233 74 q-170 0 -287 -118t-117 -288zM387 180q104 -74 234 -74q170 0 286.5 117.5t116.5 288.5q0 156 -100 270z" />
<glyph unicode="&#xf9;" horiz-adv-x="1142" d="M119 395v629h135v-629q0 -137 72.5 -213t205.5 -76q146 0 239 93.5t93 287.5v537h135v-1024h-135v160q-115 -185 -344 -185q-186 0 -293.5 113.5t-107.5 306.5zM350 1434h164l164 -267h-131z" />
<glyph unicode="&#xfa;" horiz-adv-x="1142" d="M119 395v629h135v-629q0 -137 72.5 -213t205.5 -76q146 0 239 93.5t93 287.5v537h135v-1024h-135v160q-115 -185 -344 -185q-186 0 -293.5 113.5t-107.5 306.5zM453 1167l163 267h164l-196 -267h-131z" />
<glyph unicode="&#xfb;" horiz-adv-x="1142" d="M119 395v629h135v-629q0 -137 72.5 -213t205.5 -76q146 0 239 93.5t93 287.5v537h135v-1024h-135v160q-115 -185 -344 -185q-186 0 -293.5 113.5t-107.5 306.5zM258 1167l217 267h160l217 -267h-154l-143 179l-143 -179h-154z" />
<glyph unicode="&#xfc;" horiz-adv-x="1142" d="M119 395v629h135v-629q0 -137 72.5 -213t205.5 -76q146 0 239 93.5t93 287.5v537h135v-1024h-135v160q-115 -185 -344 -185q-186 0 -293.5 113.5t-107.5 306.5zM268 1270q0 38 27 65t65 27t65.5 -27t27.5 -65t-27.5 -65t-65.5 -27t-65 27t-27 65zM657 1270q0 38 27.5 65 t65.5 27t65 -27t27 -65t-27 -65t-65 -27t-65.5 27t-27.5 65z" />
<glyph unicode="&#xfd;" horiz-adv-x="1044" d="M20 1024h144l385 -858l332 858h143l-438 -1118q-60 -152 -170 -239t-244 -77v127q95 -10 166 48.5t115 164.5l26 64zM416 1167l164 267h163l-196 -267h-131z" />
<glyph unicode="&#xfe;" d="M143 -410v1844h136v-611q66 106 173 166t240 60q143 0 264.5 -70.5t193 -194.5t71.5 -272t-71.5 -272t-193 -194.5t-264.5 -70.5q-133 0 -240 60t-173 166v-611h-136zM279 512q0 -171 116.5 -288.5t286.5 -117.5t286.5 117.5t116.5 288.5t-116.5 288.5t-286.5 117.5 t-286.5 -117.5t-116.5 -288.5z" />
<glyph unicode="&#xff;" horiz-adv-x="1044" d="M20 1024h144l385 -858l332 858h143l-438 -1118q-60 -152 -170 -239t-244 -77v127q95 -10 166 48.5t115 164.5l26 64zM231 1270q0 38 27.5 65t65.5 27t65 -27t27 -65t-27 -65t-65 -27t-65.5 27t-27.5 65zM621 1270q0 38 27 65t65 27t65 -27t27 -65t-27 -65t-65 -27t-65 27 t-27 65z" />
<glyph unicode="&#x152;" horiz-adv-x="1873" d="M82 717q0 152 54.5 288.5t149 236t229 158t288.5 58.5q101 0 190 -24h789v-136h-645v-507h614v-136h-614v-520h655v-135h-799q-92 -25 -190 -25q-154 0 -288.5 58.5t-229 158.5t-149 236.5t-54.5 288.5zM225 717q0 -166 73 -303.5t206 -218t299 -80.5q101 0 190 30v1143 q-91 31 -190 31q-166 0 -299 -80.5t-206 -218t-73 -303.5z" />
<glyph unicode="&#x153;" horiz-adv-x="2138" d="M82 512q0 228 153.5 382.5t385.5 154.5q159 0 283.5 -82.5t187.5 -221.5q59 139 182.5 221.5t288.5 82.5q112 0 208 -45t160 -120t99.5 -172.5t35.5 -203.5q0 -24 -4 -64h-899q22 -156 133 -247t275 -91q116 0 201 48.5t129 126.5l118 -70q-67 -108 -182.5 -172 t-263.5 -64q-170 0 -296.5 81t-186.5 220q-61 -137 -185.5 -219t-283.5 -82q-232 0 -385.5 154.5t-153.5 382.5zM217 512q0 -173 113 -289.5t291 -116.5q170 0 286.5 117.5t116.5 288.5t-116.5 288.5t-286.5 117.5q-178 0 -291 -116.5t-113 -289.5zM1163 575h764 q-21 162 -125 252.5t-243 90.5q-159 0 -267.5 -95t-128.5 -248z" />
<glyph unicode="&#x178;" horiz-adv-x="1218" d="M20 1434h162l428 -703l426 703h162l-518 -846v-588h-143v592zM315 1679q0 38 27.5 65.5t65.5 27.5t65 -27.5t27 -65.5t-27 -65t-65 -27t-65.5 27t-27.5 65zM705 1679q0 38 27 65.5t65 27.5t65 -27.5t27 -65.5t-27 -65t-65 -27t-65 27t-27 65z" />
<glyph unicode="&#x2c6;" horiz-adv-x="675" d="M41 1167l217 267h160l217 -267h-154l-143 179l-143 -179h-154z" />
<glyph unicode="&#x2dc;" horiz-adv-x="655" d="M41 1188q0 73 16.5 125t44.5 77.5t65 31t78.5 -9t84.5 -46.5q38 -29 60 -43t45 -22t34.5 1.5t19 36t7.5 74.5h118q0 -121 -42.5 -180.5t-107 -55.5t-136.5 58q-38 28 -60 42.5t-45.5 22.5t-35.5 -1.5t-19.5 -36t-7.5 -74.5h-119z" />
<glyph unicode="&#x2000;" horiz-adv-x="921" />
<glyph unicode="&#x2001;" horiz-adv-x="1843" />
<glyph unicode="&#x2002;" horiz-adv-x="921" />
<glyph unicode="&#x2003;" horiz-adv-x="1843" />
<glyph unicode="&#x2004;" horiz-adv-x="614" />
<glyph unicode="&#x2005;" horiz-adv-x="460" />
<glyph unicode="&#x2006;" horiz-adv-x="307" />
<glyph unicode="&#x2007;" horiz-adv-x="307" />
<glyph unicode="&#x2008;" horiz-adv-x="230" />
<glyph unicode="&#x2009;" horiz-adv-x="368" />
<glyph unicode="&#x200a;" horiz-adv-x="102" />
<glyph unicode="&#x2010;" horiz-adv-x="1064" d="M164 567v131h737v-131h-737z" />
<glyph unicode="&#x2011;" horiz-adv-x="1064" d="M164 567v131h737v-131h-737z" />
<glyph unicode="&#x2012;" horiz-adv-x="1064" d="M164 567v131h737v-131h-737z" />
<glyph unicode="&#x2013;" horiz-adv-x="1351" d="M164 567v131h1024v-131h-1024z" />
<glyph unicode="&#x2014;" horiz-adv-x="1556" d="M164 567v131h1229v-131h-1229z" />
<glyph unicode="&#x2018;" horiz-adv-x="491" d="M123 973l123 461h123l-82 -461h-164z" />
<glyph unicode="&#x2019;" horiz-adv-x="491" d="M123 973l82 461h164l-123 -461h-123z" />
<glyph unicode="&#x201a;" horiz-adv-x="491" d="M123 -287l82 461h164l-123 -461h-123z" />
<glyph unicode="&#x201c;" horiz-adv-x="778" d="M123 973l123 461h123l-82 -461h-164zM410 973l122 461h123l-82 -461h-163z" />
<glyph unicode="&#x201d;" horiz-adv-x="778" d="M123 973l82 461h164l-123 -461h-123zM410 973l82 461h163l-123 -461h-122z" />
<glyph unicode="&#x201e;" horiz-adv-x="778" d="M123 -287l82 461h164l-123 -461h-123zM410 -287l82 461h163l-123 -461h-122z" />
<glyph unicode="&#x2022;" horiz-adv-x="614" d="M102 719q0 85 60.5 144t146.5 59q85 0 144 -59t59 -144q0 -86 -59 -146.5t-144 -60.5q-86 0 -146.5 60.5t-60.5 146.5z" />
<glyph unicode="&#x2026;" horiz-adv-x="1249" d="M123 92q0 47 33 80t80 33t79.5 -33t32.5 -80t-32.5 -79.5t-79.5 -32.5t-80 32.5t-33 79.5zM512 92q0 47 33 80t80 33t79.5 -33t32.5 -80t-32.5 -79.5t-79.5 -32.5t-80 32.5t-33 79.5zM901 92q0 47 33 80t80 33t79.5 -33t32.5 -80t-32.5 -79.5t-79.5 -32.5t-80 32.5 t-33 79.5z" />
<glyph unicode="&#x202f;" horiz-adv-x="368" />
<glyph unicode="&#x2039;" horiz-adv-x="679" d="M143 633l226 368h168l-226 -368l226 -369h-168z" />
<glyph unicode="&#x203a;" horiz-adv-x="679" d="M143 264l226 369l-226 368h168l226 -368l-226 -369h-168z" />
<glyph unicode="&#x205f;" horiz-adv-x="460" />
<glyph unicode="&#x20ac;" horiz-adv-x="1216" d="M41 545v119h143v53q0 46 2 69h-145v119h158q37 256 178 404.5t360 148.5q152 0 263 -72t165 -204l-118 -68q-41 99 -121.5 152t-188.5 53q-156 0 -258.5 -107.5t-136.5 -306.5h518v-119h-530q-2 -23 -2 -69q0 -37 2 -53h530v-119h-520q31 -206 134.5 -318t262.5 -112 q109 0 189.5 53.5t120.5 153.5l118 -68q-54 -133 -165 -206t-263 -73q-223 0 -364.5 153t-177.5 417h-154z" />
<glyph unicode="&#x2122;" horiz-adv-x="952" d="M82 1358v76h317v-76h-116v-334h-82v334h-119zM449 1024v410h81l129 -205l129 205h82v-410h-82v272l-124 -198h-9l-125 198v-272h-81z" />
<glyph unicode="&#x25fc;" horiz-adv-x="1024" d="M0 0v1024h1024v-1024h-1024z" />
<glyph unicode="&#xfb03;" horiz-adv-x="1609" d="M51 893v131h174v41q0 201 112 304.5t318 88.5v-131q-150 12 -222.5 -51.5t-72.5 -210.5v-41h418v61q0 197 110 295.5t320 98.5q81 0 197 -25v-123q-102 17 -197 17q-154 0 -224.5 -59.5t-70.5 -203.5v-61h553v-1024h-135v893h-418v-893h-135v893h-418v-893h-135v893h-174 z" />
<glyph unicode="&#xfb04;" horiz-adv-x="1609" d="M51 893v131h174v41q0 201 112 304.5t318 88.5v-131q-150 12 -222.5 -51.5t-72.5 -210.5v-41h418v61q0 197 110 295.5t320 98.5q114 0 258 -25v-1454h-135v1350q-64 6 -123 6q-152 0 -223.5 -63t-71.5 -208v-61h234v-131h-234v-893h-135v893h-418v-893h-135v893h-174z" />
</font>
</defs>
</svg>
